找回密码

查看: 1232|回复: 1

[2160p-WEB] 爱在度假屋[中文字幕].Love.in.the.Villa.2022.2160p.NF.WEB-DL.x265.10bit.SDR.DDP5.1.Atmos-NOGRP 5.54GB

[复制链接]
蓝光币
1840
发表于 2023-1-6 23:13:20 | 显示全部楼层 |阅读模式


◎标  题 爱在度假屋
◎片  名 Love in the Villa
◎年  代 2022
◎产  地 美国
◎类  别 笑剧 / 恋爱
◎语  言 英语
◎上映日期 2022-09-01(美国收集)
◎IMDb评分 5.4/10 (10082人评价)
◎IMDb链接 https://www.imdb.com/title/tt15463032/
◎豆瓣评分 5.2/10 (412人评价)
◎豆瓣链接 https://movie.douban.com/subject/35924879/
◎片  长 116 分钟
◎导  演 马克·斯蒂文·约翰逊 Mark Steven Johnson
◎编  剧 马克·斯蒂文·约翰逊 Mark Steven Johnson
◎演  员 汤姆·霍珀 Tom Hopper
       卡特琳娜·格兰厄姆 Katerina Graham
       Laura Higgins Laura Higgins
       埃莱娜·卡多纳 Hélène Cardona
       凯蒂·麦戈文 Katie McGovern
       彼得·阿佩塞拉 Peter Arpesella
       肖恩·阿姆辛 Sean Amsing
       Emilio Solfrizzi Emilio Solfrizzi
◎简  介
  一位年轻女子(卡特·格兰厄姆饰)在分手后前往浪漫的意大利维罗纳散心,成果发现自己预订的别墅同时也被他人订了,因而她不能反面一位愤世嫉俗(且边幅英俊)的英国男人(汤姆·霍珀饰)共度假期。
  1. Video
  2. ID                                       : 1
  3. Format                                   : HEVC
  4. Format/Info                              : High Efficiency Video Coding
  5. Format profile                           : Main 10@L5@Main
  6. Codec ID                                 : V_MPEGH/ISO/HEVC
  7. Duration                                 : 1 h 55 min
  8. Bit rate                                 : 6 065 kb/s
  9. Width                                    : 3 840 pixels
  10. Height                                   : 2 160 pixels
  11. Display aspect ratio                     : 16:9
  12. Frame rate mode                          : Constant
  13. Frame rate                               : 24.000 FPS
  14. Color space                              : YUV
  15. Chroma subsampling                       : 4:2:0
  16. Bit depth                                : 10 bits
  17. Bits/(Pixel*Frame)                       : 0.030
  18. Stream size                              : 4.91 GiB (89%)
  19. Language                                 : English
  20. Default                                  : Yes
  21. Forced                                   : No
  22. Color range                              : Limited
  23. Color primaries                          : BT.709
  24. Transfer characteristics                 : BT.709
  25. Matrix coefficients                      : BT.709
  26. Audio
  27. ID                                       : 2
  28. Format                                   : E-AC-3 JOC
  29. Format/Info                              : Enhanced AC-3 with Joint Object Coding
  30. Commercial name                          : Dolby Digital Plus with Dolby Atmos
  31. Codec ID                                 : A_EAC3
  32. Duration                                 : 1 h 55 min
  33. Bit rate mode                            : Constant
  34. Bit rate                                 : 768 kb/s
  35. Channel(s)                               : 6 channels
  36. Channel layout                           : L R C LFE Ls Rs
  37. Sampling rate                            : 48.0 kHz
  38. Frame rate                               : 31.250 FPS (1536 SPF)
  39. Compression mode                         : Lossy
  40. Stream size                              : 637 MiB (11%)
  41. Language                                 : English
  42. Service kind                             : Complete Main
  43. Default                                  : Yes
  44. Forced                                   : No
  45. Complexity index                         : 16
  46. Number of dynamic objects                : 15
  47. Bed channel count                        : 1 channel
  48. Bed channel configuration                : LFE
  49. Text #1
  50. ID                                       : 3
  51. Format                                   : UTF-8
  52. Codec ID                                 : S_TEXT/UTF8
  53. Codec ID/Info                            : UTF-8 Plain Text
  54. Duration                                 : 1 h 51 min
  55. Bit rate                                 : 73 b/s
  56. Frame rate                               : 0.325 FPS
  57. Count of elements                        : 2184
  58. Stream size                              : 60.3 KiB (0%)
  59. Title                                    : SDH
  60. Language                                 : English
  61. Default                                  : No
  62. Forced                                   : No
  63. Text #2
  64. ID                                       : 4
  65. Format                                   : UTF-8
  66. Codec ID                                 : S_TEXT/UTF8
  67. Codec ID/Info                            : UTF-8 Plain Text
  68. Duration                                 : 1 h 53 min
  69. Bit rate                                 : 89 b/s
  70. Frame rate                               : 0.239 FPS
  71. Count of elements                        : 1635
  72. Stream size                              : 74.5 KiB (0%)
  73. Language                                 : Arabic
  74. Default                                  : No
  75. Forced                                   : No
  76. Text #3
  77. ID                                       : 5
  78. Format                                   : UTF-8
  79. Codec ID                                 : S_TEXT/UTF8
  80. Codec ID/Info                            : UTF-8 Plain Text
  81. Duration                                 : 1 h 53 min
  82. Bit rate                                 : 50 b/s
  83. Frame rate                               : 0.240 FPS
  84. Count of elements                        : 1638
  85. Stream size                              : 42.0 KiB (0%)
  86. Language                                 : Czech
  87. Default                                  : No
  88. Forced                                   : No
  89. Text #4
  90. ID                                       : 6
  91. Format                                   : UTF-8
  92. Codec ID                                 : S_TEXT/UTF8
  93. Codec ID/Info                            : UTF-8 Plain Text
  94. Duration                                 : 1 h 53 min
  95. Bit rate                                 : 48 b/s
  96. Frame rate                               : 0.231 FPS
  97. Count of elements                        : 1580
  98. Stream size                              : 40.9 KiB (0%)
  99. Language                                 : Danish
  100. Default                                  : No
  101. Forced                                   : No
  102. Text #5
  103. ID                                       : 7
  104. Format                                   : UTF-8
  105. Codec ID                                 : S_TEXT/UTF8
  106. Codec ID/Info                            : UTF-8 Plain Text
  107. Duration                                 : 1 h 53 min
  108. Bit rate                                 : 63 b/s
  109. Frame rate                               : 0.265 FPS
  110. Count of elements                        : 1809
  111. Stream size                              : 52.7 KiB (0%)
  112. Title                                    : SDH
  113. Language                                 : German
  114. Default                                  : No
  115. Forced                                   : No
  116. Text #6
  117. ID                                       : 8
  118. Format                                   : UTF-8
  119. Codec ID                                 : S_TEXT/UTF8
  120. Codec ID/Info                            : UTF-8 Plain Text
  121. Duration                                 : 1 h 53 min
  122. Bit rate                                 : 49 b/s
  123. Frame rate                               : 0.227 FPS
  124. Count of elements                        : 1550
  125. Stream size                              : 41.0 KiB (0%)
  126. Language                                 : German
  127. Default                                  : No
  128. Forced                                   : No
  129. Text #7
  130. ID                                       : 9
  131. Format                                   : UTF-8
  132. Codec ID                                 : S_TEXT/UTF8
  133. Codec ID/Info                            : UTF-8 Plain Text
  134. Duration                                 : 1 h 53 min
  135. Bit rate                                 : 56 b/s
  136. Frame rate                               : 0.235 FPS
  137. Count of elements                        : 1602
  138. Stream size                              : 47.2 KiB (0%)
  139. Language                                 : German
  140. Default                                  : No
  141. Forced                                   : No
  142. Text #8
  143. ID                                       : 10
  144. Format                                   : UTF-8
  145. Codec ID                                 : S_TEXT/UTF8
  146. Codec ID/Info                            : UTF-8 Plain Text
  147. Duration                                 : 1 h 53 min
  148. Bit rate                                 : 83 b/s
  149. Frame rate                               : 0.229 FPS
  150. Count of elements                        : 1561
  151. Stream size                              : 69.3 KiB (0%)
  152. Language                                 : Greek
  153. Default                                  : No
  154. Forced                                   : No
  155. Text #9
  156. ID                                       : 11
  157. Format                                   : UTF-8
  158. Codec ID                                 : S_TEXT/UTF8
  159. Codec ID/Info                            : UTF-8 Plain Text
  160. Duration                                 : 1 h 53 min
  161. Bit rate                                 : 59 b/s
  162. Frame rate                               : 0.248 FPS
  163. Count of elements                        : 1696
  164. Stream size                              : 49.3 KiB (0%)
  165. Title                                    : SDH
  166. Language                                 : Spanish
  167. Default                                  : No
  168. Forced                                   : No
  169. Text #10
  170. ID                                       : 12
  171. Format                                   : UTF-8
  172. Codec ID                                 : S_TEXT/UTF8
  173. Codec ID/Info                            : UTF-8 Plain Text
  174. Duration                                 : 1 h 53 min
  175. Bit rate                                 : 47 b/s
  176. Frame rate                               : 0.218 FPS
  177. Count of elements                        : 1492
  178. Stream size                              : 39.4 KiB (0%)
  179. Language                                 : Spanish
  180. Default                                  : No
  181. Forced                                   : No
  182. Text #11
  183. ID                                       : 13
  184. Format                                   : UTF-8
  185. Codec ID                                 : S_TEXT/UTF8
  186. Codec ID/Info                            : UTF-8 Plain Text
  187. Duration                                 : 1 h 53 min
  188. Bit rate                                 : 55 b/s
  189. Frame rate                               : 0.236 FPS
  190. Count of elements                        : 1610
  191. Stream size                              : 46.6 KiB (0%)
  192. Language                                 : Spanish
  193. Default                                  : No
  194. Forced                                   : No
  195. Text #12
  196. ID                                       : 14
  197. Format                                   : UTF-8
  198. Codec ID                                 : S_TEXT/UTF8
  199. Codec ID/Info                            : UTF-8 Plain Text
  200. Duration                                 : 1 h 53 min
  201. Bit rate                                 : 48 b/s
  202. Frame rate                               : 0.232 FPS
  203. Count of elements                        : 1584
  204. Stream size                              : 40.8 KiB (0%)
  205. Title                                    : Europe
  206. Language                                 : Spanish (150)
  207. Default                                  : No
  208. Forced                                   : No
  209. Text #13
  210. ID                                       : 15
  211. Format                                   : UTF-8
  212. Codec ID                                 : S_TEXT/UTF8
  213. Codec ID/Info                            : UTF-8 Plain Text
  214. Duration                                 : 1 h 53 min
  215. Bit rate                                 : 48 b/s
  216. Frame rate                               : 0.232 FPS
  217. Count of elements                        : 1586
  218. Stream size                              : 40.2 KiB (0%)
  219. Language                                 : Finnish
  220. Default                                  : No
  221. Forced                                   : No
  222. Text #14
  223. ID                                       : 16
  224. Format                                   : UTF-8
  225. Codec ID                                 : S_TEXT/UTF8
  226. Codec ID/Info                            : UTF-8 Plain Text
  227. Duration                                 : 1 h 53 min
  228. Bit rate                                 : 50 b/s
  229. Frame rate                               : 0.232 FPS
  230. Count of elements                        : 1582
  231. Stream size                              : 42.1 KiB (0%)
  232. Language                                 : fil
  233. Default                                  : No
  234. Forced                                   : No
  235. Text #15
  236. ID                                       : 17
  237. Format                                   : UTF-8
  238. Codec ID                                 : S_TEXT/UTF8
  239. Codec ID/Info                            : UTF-8 Plain Text
  240. Duration                                 : 1 h 53 min
  241. Bit rate                                 : 73 b/s
  242. Frame rate                               : 0.278 FPS
  243. Count of elements                        : 1901
  244. Stream size                              : 61.6 KiB (0%)
  245. Title                                    : SDH
  246. Language                                 : French
  247. Default                                  : No
  248. Forced                                   : No
  249. Text #16
  250. ID                                       : 18
  251. Format                                   : UTF-8
  252. Codec ID                                 : S_TEXT/UTF8
  253. Codec ID/Info                            : UTF-8 Plain Text
  254. Duration                                 : 1 h 53 min
  255. Bit rate                                 : 49 b/s
  256. Frame rate                               : 0.217 FPS
  257. Count of elements                        : 1483
  258. Stream size                              : 41.7 KiB (0%)
  259. Language                                 : French
  260. Default                                  : No
  261. Forced                                   : No
  262. Text #17
  263. ID                                       : 19
  264. Format                                   : UTF-8
  265. Codec ID                                 : S_TEXT/UTF8
  266. Codec ID/Info                            : UTF-8 Plain Text
  267. Duration                                 : 1 h 53 min
  268. Bit rate                                 : 73 b/s
  269. Frame rate                               : 0.278 FPS
  270. Count of elements                        : 1901
  271. Stream size                              : 61.6 KiB (0%)
  272. Language                                 : French
  273. Default                                  : No
  274. Forced                                   : No
  275. Text #18
  276. ID                                       : 20
  277. Format                                   : UTF-8
  278. Codec ID                                 : S_TEXT/UTF8
  279. Codec ID/Info                            : UTF-8 Plain Text
  280. Duration                                 : 1 h 53 min
  281. Bit rate                                 : 85 b/s
  282. Frame rate                               : 0.239 FPS
  283. Count of elements                        : 1635
  284. Stream size                              : 71.4 KiB (0%)
  285. Language                                 : Hebrew
  286. Default                                  : No
  287. Forced                                   : No
  288. Text #19
  289. ID                                       : 21
  290. Format                                   : UTF-8
  291. Codec ID                                 : S_TEXT/UTF8
  292. Codec ID/Info                            : UTF-8 Plain Text
  293. Duration                                 : 1 h 53 min
  294. Bit rate                                 : 43 b/s
  295. Frame rate                               : 0.232 FPS
  296. Count of elements                        : 1587
  297. Stream size                              : 36.5 KiB (0%)
  298. Language                                 : Croatian
  299. Default                                  : No
  300. Forced                                   : No
  301. Text #20
  302. ID                                       : 22
  303. Format                                   : UTF-8
  304. Codec ID                                 : S_TEXT/UTF8
  305. Codec ID/Info                            : UTF-8 Plain Text
  306. Duration                                 : 1 h 53 min
  307. Bit rate                                 : 52 b/s
  308. Frame rate                               : 0.230 FPS
  309. Count of elements                        : 1569
  310. Stream size                              : 43.7 KiB (0%)
  311. Language                                 : Hungarian
  312. Default                                  : No
  313. Forced                                   : No
  314. Text #21
  315. ID                                       : 23
  316. Format                                   : UTF-8
  317. Codec ID                                 : S_TEXT/UTF8
  318. Codec ID/Info                            : UTF-8 Plain Text
  319. Duration                                 : 1 h 53 min
  320. Bit rate                                 : 48 b/s
  321. Frame rate                               : 0.237 FPS
  322. Count of elements                        : 1620
  323. Stream size                              : 40.5 KiB (0%)
  324. Language                                 : Indonesian
  325. Default                                  : No
  326. Forced                                   : No
  327. Text #22
  328. ID                                       : 24
  329. Format                                   : UTF-8
  330. Codec ID                                 : S_TEXT/UTF8
  331. Codec ID/Info                            : UTF-8 Plain Text
  332. Duration                                 : 1 h 53 min
  333. Bit rate                                 : 77 b/s
  334. Frame rate                               : 0.316 FPS
  335. Count of elements                        : 2163
  336. Stream size                              : 64.8 KiB (0%)
  337. Title                                    : SDH
  338. Language                                 : Italian
  339. Default                                  : No
  340. Forced                                   : No
  341. Text #23
  342. ID                                       : 25
  343. Format                                   : UTF-8
  344. Codec ID                                 : S_TEXT/UTF8
  345. Codec ID/Info                            : UTF-8 Plain Text
  346. Duration                                 : 1 h 53 min
  347. Bit rate                                 : 45 b/s
  348. Frame rate                               : 0.223 FPS
  349. Count of elements                        : 1522
  350. Stream size                              : 38.1 KiB (0%)
  351. Language                                 : Italian
  352. Default                                  : No
  353. Forced                                   : No
  354. Text #24
  355. ID                                       : 26
  356. Format                                   : UTF-8
  357. Codec ID                                 : S_TEXT/UTF8
  358. Codec ID/Info                            : UTF-8 Plain Text
  359. Duration                                 : 1 h 48 min
  360. Bit rate                                 : 58 b/s
  361. Frame rate                               : 0.253 FPS
  362. Count of elements                        : 1645
  363. Stream size                              : 46.1 KiB (0%)
  364. Language                                 : Italian
  365. Default                                  : No
  366. Forced                                   : No
  367. Text #25
  368. ID                                       : 27
  369. Format                                   : UTF-8
  370. Codec ID                                 : S_TEXT/UTF8
  371. Codec ID/Info                            : UTF-8 Plain Text
  372. Duration                                 : 1 h 53 min
  373. Bit rate                                 : 56 b/s
  374. Frame rate                               : 0.250 FPS
  375. Count of elements                        : 1711
  376. Stream size                              : 47.5 KiB (0%)
  377. Language                                 : Japanese
  378. Default                                  : No
  379. Forced                                   : No
  380. Text #26
  381. ID                                       : 28
  382. Format                                   : UTF-8
  383. Codec ID                                 : S_TEXT/UTF8
  384. Codec ID/Info                            : UTF-8 Plain Text
  385. Duration                                 : 1 h 53 min
  386. Bit rate                                 : 66 b/s
  387. Frame rate                               : 0.240 FPS
  388. Count of elements                        : 1640
  389. Stream size                              : 55.1 KiB (0%)
  390. Language                                 : Korean
  391. Default                                  : No
  392. Forced                                   : No
  393. Text #27
  394. ID                                       : 29
  395. Format                                   : UTF-8
  396. Codec ID                                 : S_TEXT/UTF8
  397. Codec ID/Info                            : UTF-8 Plain Text
  398. Duration                                 : 1 h 53 min
  399. Bit rate                                 : 46 b/s
  400. Frame rate                               : 0.238 FPS
  401. Count of elements                        : 1625
  402. Stream size                              : 39.1 KiB (0%)
  403. Language                                 : Malay
  404. Default                                  : No
  405. Forced                                   : No
  406. Text #28
  407. ID                                       : 30
  408. Format                                   : UTF-8
  409. Codec ID                                 : S_TEXT/UTF8
  410. Codec ID/Info                            : UTF-8 Plain Text
  411. Duration                                 : 1 h 53 min
  412. Bit rate                                 : 50 b/s
  413. Frame rate                               : 0.164 FPS
  414. Count of elements                        : 1123
  415. Stream size                              : 41.8 KiB (0%)
  416. Language                                 : Norwegian Bokmal
  417. Default                                  : No
  418. Forced                                   : No
  419. Text #29
  420. ID                                       : 31
  421. Format                                   : UTF-8
  422. Codec ID                                 : S_TEXT/UTF8
  423. Codec ID/Info                            : UTF-8 Plain Text
  424. Duration                                 : 1 h 53 min
  425. Bit rate                                 : 46 b/s
  426. Frame rate                               : 0.177 FPS
  427. Count of elements                        : 1206
  428. Stream size                              : 39.0 KiB (0%)
  429. Language                                 : Dutch
  430. Default                                  : No
  431. Forced                                   : No
  432. Text #30
  433. ID                                       : 32
  434. Format                                   : UTF-8
  435. Codec ID                                 : S_TEXT/UTF8
  436. Codec ID/Info                            : UTF-8 Plain Text
  437. Duration                                 : 1 h 53 min
  438. Bit rate                                 : 47 b/s
  439. Frame rate                               : 0.237 FPS
  440. Count of elements                        : 1619
  441. Stream size                              : 40.0 KiB (0%)
  442. Language                                 : Polish
  443. Default                                  : No
  444. Forced                                   : No
  445. Text #31
  446. ID                                       : 33
  447. Format                                   : UTF-8
  448. Codec ID                                 : S_TEXT/UTF8
  449. Codec ID/Info                            : UTF-8 Plain Text
  450. Duration                                 : 1 h 53 min
  451. Bit rate                                 : 46 b/s
  452. Frame rate                               : 0.236 FPS
  453. Count of elements                        : 1613
  454. Stream size                              : 39.0 KiB (0%)
  455. Language                                 : Portuguese
  456. Default                                  : No
  457. Forced                                   : No
  458. Text #32
  459. ID                                       : 34
  460. Format                                   : UTF-8
  461. Codec ID                                 : S_TEXT/UTF8
  462. Codec ID/Info                            : UTF-8 Plain Text
  463. Duration                                 : 1 h 48 min
  464. Bit rate                                 : 71 b/s
  465. Frame rate                               : 0.309 FPS
  466. Count of elements                        : 2013
  467. Stream size                              : 57.1 KiB (0%)
  468. Title                                    : Brazil (SDH)
  469. Language                                 : Portuguese (BR)
  470. Default                                  : No
  471. Forced                                   : No
  472. Text #33
  473. ID                                       : 35
  474. Format                                   : UTF-8
  475. Codec ID                                 : S_TEXT/UTF8
  476. Codec ID/Info                            : UTF-8 Plain Text
  477. Duration                                 : 1 h 53 min
  478. Bit rate                                 : 51 b/s
  479. Frame rate                               : 0.236 FPS
  480. Count of elements                        : 1614
  481. Stream size                              : 43.2 KiB (0%)
  482. Title                                    : Brazil
  483. Language                                 : Portuguese (BR)
  484. Default                                  : No
  485. Forced                                   : No
  486. Text #34
  487. ID                                       : 36
  488. Format                                   : UTF-8
  489. Codec ID                                 : S_TEXT/UTF8
  490. Codec ID/Info                            : UTF-8 Plain Text
  491. Duration                                 : 1 h 48 min
  492. Bit rate                                 : 61 b/s
  493. Frame rate                               : 0.262 FPS
  494. Count of elements                        : 1703
  495. Stream size                              : 48.7 KiB (0%)
  496. Title                                    : Brazil
  497. Language                                 : Portuguese (BR)
  498. Default                                  : No
  499. Forced                                   : No
  500. Text #35
  501. ID                                       : 37
  502. Format                                   : UTF-8
  503. Codec ID                                 : S_TEXT/UTF8
  504. Codec ID/Info                            : UTF-8 Plain Text
  505. Duration                                 : 1 h 53 min
  506. Bit rate                                 : 56 b/s
  507. Frame rate                               : 0.210 FPS
  508. Count of elements                        : 1435
  509. Stream size                              : 46.8 KiB (0%)
  510. Language                                 : Romanian
  511. Default                                  : No
  512. Forced                                   : No
  513. Text #36
  514. ID                                       : 38
  515. Format                                   : UTF-8
  516. Codec ID                                 : S_TEXT/UTF8
  517. Codec ID/Info                            : UTF-8 Plain Text
  518. Duration                                 : 1 h 53 min
  519. Bit rate                                 : 78 b/s
  520. Frame rate                               : 0.228 FPS
  521. Count of elements                        : 1560
  522. Stream size                              : 65.6 KiB (0%)
  523. Language                                 : Russian
  524. Default                                  : No
  525. Forced                                   : No
  526. Text #37
  527. ID                                       : 39
  528. Format                                   : UTF-8
  529. Codec ID                                 : S_TEXT/UTF8
  530. Codec ID/Info                            : UTF-8 Plain Text
  531. Duration                                 : 1 h 53 min
  532. Bit rate                                 : 49 b/s
  533. Frame rate                               : 0.191 FPS
  534. Count of elements                        : 1307
  535. Stream size                              : 41.3 KiB (0%)
  536. Language                                 : Swedish
  537. Default                                  : No
  538. Forced                                   : No
  539. Text #38
  540. ID                                       : 40
  541. Format                                   : UTF-8
  542. Codec ID                                 : S_TEXT/UTF8
  543. Codec ID/Info                            : UTF-8 Plain Text
  544. Duration                                 : 1 h 53 min
  545. Bit rate                                 : 129 b/s
  546. Frame rate                               : 0.240 FPS
  547. Count of elements                        : 1638
  548. Stream size                              : 108 KiB (0%)
  549. Language                                 : Thai
  550. Default                                  : No
  551. Forced                                   : No
  552. Text #39
  553. ID                                       : 41
  554. Format                                   : UTF-8
  555. Codec ID                                 : S_TEXT/UTF8
  556. Codec ID/Info                            : UTF-8 Plain Text
  557. Duration                                 : 1 h 53 min
  558. Bit rate                                 : 51 b/s
  559. Frame rate                               : 0.224 FPS
  560. Count of elements                        : 1528
  561. Stream size                              : 43.1 KiB (0%)
  562. Language                                 : Turkish
  563. Default                                  : No
  564. Forced                                   : No
  565. Text #40
  566. ID                                       : 42
  567. Format                                   : UTF-8
  568. Codec ID                                 : S_TEXT/UTF8
  569. Codec ID/Info                            : UTF-8 Plain Text
  570. Duration                                 : 1 h 48 min
  571. Bit rate                                 : 83 b/s
  572. Frame rate                               : 0.252 FPS
  573. Count of elements                        : 1638
  574. Stream size                              : 66.5 KiB (0%)
  575. Language                                 : Ukrainian
  576. Default                                  : No
  577. Forced                                   : No
  578. Text #41
  579. ID                                       : 43
  580. Format                                   : UTF-8
  581. Codec ID                                 : S_TEXT/UTF8
  582. Codec ID/Info                            : UTF-8 Plain Text
  583. Duration                                 : 1 h 53 min
  584. Bit rate                                 : 73 b/s
  585. Frame rate                               : 0.228 FPS
  586. Count of elements                        : 1558
  587. Stream size                              : 61.4 KiB (0%)
  588. Language                                 : Vietnamese
  589. Default                                  : No
  590. Forced                                   : No
  591. Text #42
  592. ID                                       : 44
  593. Format                                   : UTF-8
  594. Codec ID                                 : S_TEXT/UTF8
  595. Codec ID/Info                            : UTF-8 Plain Text
  596. Duration                                 : 1 h 53 min
  597. Bit rate                                 : 52 b/s
  598. Frame rate                               : 0.240 FPS
  599. Count of elements                        : 1638
  600. Stream size                              : 43.8 KiB (0%)
  601. Title                                    : Simplified
  602. Language                                 : Chinese (Simplied)
  603. Default                                  : No
  604. Forced                                   : No
  605. Text #43
  606. ID                                       : 45
  607. Format                                   : UTF-8
  608. Codec ID                                 : S_TEXT/UTF8
  609. Codec ID/Info                            : UTF-8 Plain Text
  610. Duration                                 : 1 h 53 min
  611. Bit rate                                 : 51 b/s
  612. Frame rate                               : 0.237 FPS
  613. Count of elements                        : 1616
  614. Stream size                              : 42.8 KiB (0%)
  615. Title                                    : Traditional
  616. Language                                 : Chinese (Traditional)
  617. Default                                  : No
  618. Forced                                   : No
复制代码











回复

使用道具 举报

蓝光币
62
发表于 2023-1-6 23:44:21 | 显示全部楼层

这东西我收了!谢谢楼主!蓝光电影网真好!
回复

使用道具 举报

懒得打字嘛,点击右侧快捷回复 【右侧内容,后台自定义】
您需要登录后才可以回帖 登录 | 立即加入

本版积分规则

Copyright © 2024 Comsenz Inc. Powered by 蓝光电影网

本站内容由用户自主分享和转载自互联网,转载目的在于传递更多信息,并不代表本网赞同其观点和对其真实性负责。

如有侵权、违反国家法律政策行为,请联系我们,我们会第一时间及时清除和处理!

举报反馈邮箱:4k1080.com@gmail.com

快速回复 返回顶部 返回列表