找回密码

查看: 3024|回复: 2

[2160p-WEB] 穿靴子的猫2.Puss.in.Boots.The.Last.Wish.2022.2160p.MA.WEB-DL.x265.10bit.HDR.DDP5.1.Atmos-CM 17.95GB

[复制链接]
蓝光币
2027
发表于 2023-1-7 01:59:51 | 显示全部楼层 |阅读模式


◎标  题 穿靴子的猫2
◎译  名 无敌猫剑侠2 / 鞋猫剑客2(台) / 无敌猫剑侠:8+1条命(港) / 穿靴子的猫2:九条命和四十大盗 / 穿靴子的猫:最初的愿望 / Puss in Boots 2: Nine Lives & 40 Thieves
◎片  名 Puss in Boots: The Last Wish
◎年  代 2022
◎产  地 美国
◎类  别 笑剧 / 动画 / 奇异 / 冒险
◎语  言 英语
◎上映日期 2022-12-07(法国) / 2022-12-21(美国)
◎IMDb评分 7.8/10 (222人评价)
◎IMDb链接 https://www.imdb.com/title/tt3915174/
◎豆瓣链接 https://movie.douban.com/subject/25868125/
◎导  演 乔尔·克劳福德 Joel Crawford
       贾努埃尔·梅尔卡多 Januel Mercado
◎编  剧 保罗·费舍尔 Paul Fisher
       克里斯托弗·梅勒丹德利 Christopher Meledandri
◎演  员 安东尼奥·班德拉斯 Antonio Banderas
       萨尔玛·海耶克 Salma Hayek
       哈维·吉兰 Harvey Guillen
       弗洛伦丝·皮尤 Florence Pugh
       约翰·木兰尼 John Mulaney
       瓦格纳·马拉 Wagner Moura
       雷·温斯顿 Ray Winstone
       萨姆森·卡约 Samson Kayo
       奥利维娅·科尔曼 Olivia Colman
       达明·乔伊·伦道夫 Da'Vine Joy Randolph
       安东尼·门德斯 Anthony Mendez
       凯莉·艾莉莎·弗拉纳根 Kaley Alyssa Flanagan
       克里斯·米勒 Chris Miller
◎简  介
  时隔11年,臭屁自豪又爱卖萌的猫大侠返来了!现在的猫大侠(安东尼奥·班德拉斯 配音),照旧诙谐潇洒又不拘小节、数次“花式送死”后,九条命现在只剩一条,因而不能不请求自己的老同伴兼“宿敌”——诱人的软爪妞(萨尔玛·海耶克 配音)来施以援手来规复自己的九条生命。
  1. Video
  2. ID                                       : 1
  3. Format                                   : HEVC
  4. Format/Info                              : High Efficiency Video Coding
  5. Format profile                           : Main 10@L5@High
  6. HDR format                               : Dolby Vision, Version 1.0, dvhe.08.06, BL+RPU, HDR10 compatible / SMPTE ST 2086, HDR10 compatible
  7. Codec ID                                 : V_MPEGH/ISO/HEVC
  8. Duration                                 : 1 h 42 min
  9. Bit rate                                 : 24.5 Mb/s
  10. Width                                    : 3 840 pixels
  11. Height                                   : 2 160 pixels
  12. Display aspect ratio                     : 16:9
  13. Frame rate mode                          : Constant
  14. Frame rate                               : 23.976 (24000/1001) FPS
  15. Color space                              : YUV
  16. Chroma subsampling                       : 4:2:0 (Type 2)
  17. Bit depth                                : 10 bits
  18. Bits/(Pixel*Frame)                       : 0.123
  19. Stream size                              : 17.5 GiB (97%)
  20. Language                                 : English
  21. Default                                  : Yes
  22. Forced                                   : No
  23. Color range                              : Limited
  24. Color primaries                          : BT.2020
  25. Transfer characteristics                 : PQ
  26. Matrix coefficients                      : BT.2020 non-constant
  27. Mastering display color primaries        : BT.2020
  28. Mastering display luminance              : min: 0.0050 cd/m2, max: 1000 cd/m2
  29. Maximum Content Light Level              : 975 cd/m2
  30. Maximum Frame-Average Light Level        : 276 cd/m2
  31. Audio
  32. ID                                       : 2
  33. Format                                   : E-AC-3 JOC
  34. Format/Info                              : Enhanced AC-3 with Joint Object Coding
  35. Commercial name                          : Dolby Digital Plus with Dolby Atmos
  36. Codec ID                                 : A_EAC3
  37. Duration                                 : 1 h 42 min
  38. Bit rate mode                            : Constant
  39. Bit rate                                 : 640 kb/s
  40. Channel(s)                               : 6 channels
  41. Channel layout                           : L R C LFE Ls Rs
  42. Sampling rate                            : 48.0 kHz
  43. Frame rate                               : 31.250 FPS (1536 SPF)
  44. Compression mode                         : Lossy
  45. Stream size                              : 469 MiB (3%)
  46. Language                                 : English
  47. Service kind                             : Complete Main
  48. Default                                  : Yes
  49. Forced                                   : No
  50. Complexity index                         : 16
  51. Number of dynamic objects                : 15
  52. Bed channel count                        : 1 channel
  53. Bed channel configuration                : LFE
  54. Text #1
  55. ID                                       : 3
  56. Format                                   : UTF-8
  57. Codec ID                                 : S_TEXT/UTF8
  58. Codec ID/Info                            : UTF-8 Plain Text
  59. Duration                                 : 1 h 40 min
  60. Bit rate                                 : 56 b/s
  61. Frame rate                               : 0.267 FPS
  62. Count of elements                        : 1619
  63. Stream size                              : 41.8 KiB (0%)
  64. Language                                 : English
  65. Default                                  : No
  66. Forced                                   : No
  67. Text #2
  68. ID                                       : 4
  69. Format                                   : UTF-8
  70. Codec ID                                 : S_TEXT/UTF8
  71. Codec ID/Info                            : UTF-8 Plain Text
  72. Duration                                 : 1 h 42 min
  73. Bit rate                                 : 74 b/s
  74. Frame rate                               : 0.354 FPS
  75. Count of elements                        : 2170
  76. Stream size                              : 56.2 KiB (0%)
  77. Title                                    : SDH
  78. Language                                 : English
  79. Default                                  : No
  80. Forced                                   : No
  81. Text #3
  82. ID                                       : 5
  83. Format                                   : UTF-8
  84. Codec ID                                 : S_TEXT/UTF8
  85. Codec ID/Info                            : UTF-8 Plain Text
  86. Duration                                 : 1 h 40 min
  87. Bit rate                                 : 56 b/s
  88. Frame rate                               : 0.250 FPS
  89. Count of elements                        : 1517
  90. Stream size                              : 41.9 KiB (0%)
  91. Title                                    : Latin American
  92. Language                                 : Spanish (Latin America)
  93. Default                                  : No
  94. Forced                                   : No
复制代码











回复

使用道具 举报

蓝光币
47
发表于 2023-1-18 18:58:58 | 显示全部楼层
谢谢楼主分享
回复

使用道具 举报

蓝光币
4
发表于 2023-1-28 01:01:43 | 显示全部楼层

谢谢楼主分享
回复

使用道具 举报

懒得打字嘛,点击右侧快捷回复 【右侧内容,后台自定义】
您需要登录后才可以回帖 登录 | 立即加入

本版积分规则

Archiver| |网站地图

Copyright © 2024 Comsenz Inc. Powered by 蓝光电影网

本站内容由用户自主分享和转载自互联网,转载目的在于传递更多信息,并不代表本网赞同其观点和对其真实性负责。

如有侵权、违反国家法律政策行为,请联系我们,我们会第一时间及时清除和处理!

举报反馈邮箱:4k1080.com@gmail.com

快速回复 返回顶部 返回列表