找回密码

蓝光电影网

查看: 768|回复: 0

[2160p-WEB] 圣诞王子[中文字幕].A.Christmas.Prince.2017.2160p.NF.WEB-DL.x265.10bit.SDR.DDP5.1-NewYear 7.96GB

[复制链接]
蓝光币
1483
发表于 2023-1-7 01:59:53 | 显示全部楼层 |阅读模式


◎标  题 圣诞王子
◎片  名 A Christmas Prince
◎年  代 2017
◎产  地 美国
◎类  别 恋爱
◎语  言 英语
◎上映日期 2017-11-17(美国)
◎IMDb评分 5.7/10 (19453人评价)
◎IMDb链接 https://www.imdb.com/title/tt7608418/
◎豆瓣评分 5.1/10 (702人评价)
◎豆瓣链接 https://movie.douban.com/subject/27200580/
◎片  长 92分钟
◎导  演 亚历克斯·扎姆 Alex Zamm
◎演  员 汤姆·奈特 Tom Knight
       西奥·德瓦尼 Theo Devaney
       莎拉·道格拉斯 Sarah Douglas
       丹尼尔·法瑟斯 Daniel Fathers
       霍纳·妮芙茜 Honor Kneafsey
       艾丽丝·克里奇 Alice Krige
       本·兰博 Ben Lamb
       罗丝·麦克莱弗 Rose McIver
       Emma Louise Saunders Emma Louise Saunders
       塔希拉·谢里夫 Tahirah Sharif
◎简  介
  安柏(罗丝·麦克莱弗 Rose McIver 饰)是一位年轻有为的记者,对自己的奇迹布满了热情,而且有着远大的理想和理想。一次偶然中,安柏获得了一个千载难逢的好机遇,去采访行将继位的王子理查德(本·兰博 Ben Lamb 饰)。哪晓得,在误打误撞当中,安柏居然成为了理查德的家庭教师,但塞翁失马的是,安柏得以近间隔的和这位外界传闻中花花令郎相处,在此进程中,安柏发现了理查德不为人知的另一面。                                    
                                随着时候的推移,安柏和理查德之间渐渐碰撞出了恋爱的火花,与此同时,一个奥秘的浮出水面让安柏不晓得自己该做出怎样的挑选。
  1. Video
  2. ID                                       : 1
  3. Format                                   : HEVC
  4. Format/Info                              : High Efficiency Video Coding
  5. Format profile                           : Main 10@L5@Main
  6. Codec ID                                 : V_MPEGH/ISO/HEVC
  7. Duration                                 : 1 h 32 min
  8. Bit rate                                 : 11.7 Mb/s
  9. Width                                    : 3 840 pixels
  10. Height                                   : 2 160 pixels
  11. Display aspect ratio                     : 16:9
  12. Frame rate mode                          : Constant
  13. Frame rate                               : 23.976 (24000/1001) FPS
  14. Color space                              : YUV
  15. Chroma subsampling                       : 4:2:0
  16. Bit depth                                : 10 bits
  17. Bits/(Pixel*Frame)                       : 0.059
  18. Stream size                              : 7.55 GiB (95%)
  19. Language                                 : English
  20. Default                                  : Yes
  21. Forced                                   : No
  22. Color range                              : Limited
  23. Color primaries                          : BT.709
  24. Transfer characteristics                 : BT.709
  25. Matrix coefficients                      : BT.709
  26. Audio
  27. ID                                       : 2
  28. Format                                   : E-AC-3
  29. Format/Info                              : Enhanced AC-3
  30. Commercial name                          : Dolby Digital Plus
  31. Codec ID                                 : A_EAC3
  32. Duration                                 : 1 h 32 min
  33. Bit rate mode                            : Constant
  34. Bit rate                                 : 640 kb/s
  35. Channel(s)                               : 6 channels
  36. Channel layout                           : L R C LFE Ls Rs
  37. Sampling rate                            : 48.0 kHz
  38. Frame rate                               : 31.250 FPS (1536 SPF)
  39. Compression mode                         : Lossy
  40. Stream size                              : 424 MiB (5%)
  41. Language                                 : English
  42. Service kind                             : Complete Main
  43. Default                                  : Yes
  44. Forced                                   : No
  45. Text #1
  46. ID                                       : 3
  47. Format                                   : UTF-8
  48. Codec ID                                 : S_TEXT/UTF8
  49. Codec ID/Info                            : UTF-8 Plain Text
  50. Duration                                 : 1 h 27 min
  51. Bit rate                                 : 68 b/s
  52. Frame rate                               : 0.241 FPS
  53. Count of elements                        : 1260
  54. Stream size                              : 43.5 KiB (0%)
  55. Language                                 : English
  56. Default                                  : No
  57. Forced                                   : No
  58. Text #2
  59. ID                                       : 4
  60. Format                                   : UTF-8
  61. Codec ID                                 : S_TEXT/UTF8
  62. Codec ID/Info                            : UTF-8 Plain Text
  63. Duration                                 : 1 h 28 min
  64. Bit rate                                 : 72 b/s
  65. Frame rate                               : 0.260 FPS
  66. Count of elements                        : 1372
  67. Stream size                              : 46.6 KiB (0%)
  68. Title                                    : SDH
  69. Language                                 : English
  70. Default                                  : No
  71. Forced                                   : No
  72. Text #3
  73. ID                                       : 5
  74. Format                                   : UTF-8
  75. Codec ID                                 : S_TEXT/UTF8
  76. Codec ID/Info                            : UTF-8 Plain Text
  77. Duration                                 : 1 h 31 min
  78. Bit rate                                 : 106 b/s
  79. Frame rate                               : 0.230 FPS
  80. Count of elements                        : 1262
  81. Stream size                              : 71.5 KiB (0%)
  82. Language                                 : Arabic
  83. Default                                  : No
  84. Forced                                   : No
  85. Text #4
  86. ID                                       : 6
  87. Format                                   : UTF-8
  88. Codec ID                                 : S_TEXT/UTF8
  89. Codec ID/Info                            : UTF-8 Plain Text
  90. Duration                                 : 1 h 31 min
  91. Bit rate                                 : 58 b/s
  92. Frame rate                               : 0.191 FPS
  93. Count of elements                        : 1045
  94. Stream size                              : 39.1 KiB (0%)
  95. Language                                 : Danish
  96. Default                                  : No
  97. Forced                                   : No
  98. Text #5
  99. ID                                       : 7
  100. Format                                   : UTF-8
  101. Codec ID                                 : S_TEXT/UTF8
  102. Codec ID/Info                            : UTF-8 Plain Text
  103. Duration                                 : 1 h 31 min
  104. Bit rate                                 : 65 b/s
  105. Frame rate                               : 0.230 FPS
  106. Count of elements                        : 1258
  107. Stream size                              : 43.6 KiB (0%)
  108. Language                                 : German
  109. Default                                  : No
  110. Forced                                   : No
  111. Text #6
  112. ID                                       : 8
  113. Format                                   : UTF-8
  114. Codec ID                                 : S_TEXT/UTF8
  115. Codec ID/Info                            : UTF-8 Plain Text
  116. Duration                                 : 1 h 31 min
  117. Bit rate                                 : 105 b/s
  118. Frame rate                               : 0.229 FPS
  119. Count of elements                        : 1255
  120. Stream size                              : 70.5 KiB (0%)
  121. Language                                 : Greek
  122. Default                                  : No
  123. Forced                                   : No
  124. Text #7
  125. ID                                       : 9
  126. Format                                   : UTF-8
  127. Codec ID                                 : S_TEXT/UTF8
  128. Codec ID/Info                            : UTF-8 Plain Text
  129. Duration                                 : 1 h 31 min
  130. Bit rate                                 : 56 b/s
  131. Frame rate                               : 0.227 FPS
  132. Count of elements                        : 1246
  133. Stream size                              : 38.0 KiB (0%)
  134. Title                                    : Latin American
  135. Language                                 : Spanish (Latin America)
  136. Default                                  : No
  137. Forced                                   : No
  138. Text #8
  139. ID                                       : 10
  140. Format                                   : UTF-8
  141. Codec ID                                 : S_TEXT/UTF8
  142. Codec ID/Info                            : UTF-8 Plain Text
  143. Duration                                 : 1 h 31 min
  144. Bit rate                                 : 65 b/s
  145. Frame rate                               : 0.230 FPS
  146. Count of elements                        : 1259
  147. Stream size                              : 43.6 KiB (0%)
  148. Language                                 : Spanish (ES)
  149. Default                                  : No
  150. Forced                                   : No
  151. Text #9
  152. ID                                       : 11
  153. Format                                   : UTF-8
  154. Codec ID                                 : S_TEXT/UTF8
  155. Codec ID/Info                            : UTF-8 Plain Text
  156. Duration                                 : 1 h 31 min
  157. Bit rate                                 : 53 b/s
  158. Frame rate                               : 0.172 FPS
  159. Count of elements                        : 941
  160. Stream size                              : 35.5 KiB (0%)
  161. Language                                 : Finnish
  162. Default                                  : No
  163. Forced                                   : No
  164. Text #10
  165. ID                                       : 12
  166. Format                                   : UTF-8
  167. Codec ID                                 : S_TEXT/UTF8
  168. Codec ID/Info                            : UTF-8 Plain Text
  169. Duration                                 : 1 h 31 min
  170. Bit rate                                 : 59 b/s
  171. Frame rate                               : 0.223 FPS
  172. Count of elements                        : 1219
  173. Stream size                              : 39.8 KiB (0%)
  174. Language                                 : fil
  175. Default                                  : No
  176. Forced                                   : No
  177. Text #11
  178. ID                                       : 13
  179. Format                                   : UTF-8
  180. Codec ID                                 : S_TEXT/UTF8
  181. Codec ID/Info                            : UTF-8 Plain Text
  182. Duration                                 : 1 h 31 min
  183. Bit rate                                 : 65 b/s
  184. Frame rate                               : 0.230 FPS
  185. Count of elements                        : 1257
  186. Stream size                              : 43.4 KiB (0%)
  187. Language                                 : French
  188. Default                                  : No
  189. Forced                                   : No
  190. Text #12
  191. ID                                       : 14
  192. Format                                   : UTF-8
  193. Codec ID                                 : S_TEXT/UTF8
  194. Codec ID/Info                            : UTF-8 Plain Text
  195. Duration                                 : 1 h 31 min
  196. Bit rate                                 : 94 b/s
  197. Frame rate                               : 0.230 FPS
  198. Count of elements                        : 1259
  199. Stream size                              : 62.9 KiB (0%)
  200. Language                                 : Hebrew
  201. Default                                  : No
  202. Forced                                   : No
  203. Text #13
  204. ID                                       : 15
  205. Format                                   : UTF-8
  206. Codec ID                                 : S_TEXT/UTF8
  207. Codec ID/Info                            : UTF-8 Plain Text
  208. Duration                                 : 1 h 31 min
  209. Bit rate                                 : 54 b/s
  210. Frame rate                               : 0.226 FPS
  211. Count of elements                        : 1238
  212. Stream size                              : 36.3 KiB (0%)
  213. Language                                 : Indonesian
  214. Default                                  : No
  215. Forced                                   : No
  216. Text #14
  217. ID                                       : 16
  218. Format                                   : UTF-8
  219. Codec ID                                 : S_TEXT/UTF8
  220. Codec ID/Info                            : UTF-8 Plain Text
  221. Duration                                 : 1 h 31 min
  222. Bit rate                                 : 71 b/s
  223. Frame rate                               : 0.217 FPS
  224. Count of elements                        : 1190
  225. Stream size                              : 47.7 KiB (0%)
  226. Language                                 : Italian
  227. Default                                  : No
  228. Forced                                   : No
  229. Text #15
  230. ID                                       : 17
  231. Format                                   : UTF-8
  232. Codec ID                                 : S_TEXT/UTF8
  233. Codec ID/Info                            : UTF-8 Plain Text
  234. Duration                                 : 1 h 31 min
  235. Bit rate                                 : 54 b/s
  236. Frame rate                               : 0.246 FPS
  237. Count of elements                        : 1347
  238. Stream size                              : 36.3 KiB (0%)
  239. Language                                 : Japanese
  240. Default                                  : No
  241. Forced                                   : No
  242. Text #16
  243. ID                                       : 18
  244. Format                                   : UTF-8
  245. Codec ID                                 : S_TEXT/UTF8
  246. Codec ID/Info                            : UTF-8 Plain Text
  247. Duration                                 : 1 h 31 min
  248. Bit rate                                 : 75 b/s
  249. Frame rate                               : 0.232 FPS
  250. Count of elements                        : 1269
  251. Stream size                              : 50.4 KiB (0%)
  252. Language                                 : Korean
  253. Default                                  : No
  254. Forced                                   : No
  255. Text #17
  256. ID                                       : 19
  257. Format                                   : UTF-8
  258. Codec ID                                 : S_TEXT/UTF8
  259. Codec ID/Info                            : UTF-8 Plain Text
  260. Duration                                 : 1 h 31 min
  261. Bit rate                                 : 56 b/s
  262. Frame rate                               : 0.220 FPS
  263. Count of elements                        : 1207
  264. Stream size                              : 37.5 KiB (0%)
  265. Language                                 : Norwegian Bokmal
  266. Default                                  : No
  267. Forced                                   : No
  268. Text #18
  269. ID                                       : 20
  270. Format                                   : UTF-8
  271. Codec ID                                 : S_TEXT/UTF8
  272. Codec ID/Info                            : UTF-8 Plain Text
  273. Duration                                 : 1 h 31 min
  274. Bit rate                                 : 59 b/s
  275. Frame rate                               : 0.196 FPS
  276. Count of elements                        : 1075
  277. Stream size                              : 39.9 KiB (0%)
  278. Language                                 : Dutch
  279. Default                                  : No
  280. Forced                                   : No
  281. Text #19
  282. ID                                       : 21
  283. Format                                   : UTF-8
  284. Codec ID                                 : S_TEXT/UTF8
  285. Codec ID/Info                            : UTF-8 Plain Text
  286. Duration                                 : 1 h 31 min
  287. Bit rate                                 : 54 b/s
  288. Frame rate                               : 0.206 FPS
  289. Count of elements                        : 1126
  290. Stream size                              : 36.3 KiB (0%)
  291. Language                                 : Polish
  292. Default                                  : No
  293. Forced                                   : No
  294. Text #20
  295. ID                                       : 22
  296. Format                                   : UTF-8
  297. Codec ID                                 : S_TEXT/UTF8
  298. Codec ID/Info                            : UTF-8 Plain Text
  299. Duration                                 : 1 h 31 min
  300. Bit rate                                 : 66 b/s
  301. Frame rate                               : 0.231 FPS
  302. Count of elements                        : 1263
  303. Stream size                              : 44.4 KiB (0%)
  304. Title                                    : Brazilian
  305. Language                                 : Portuguese (BR)
  306. Default                                  : No
  307. Forced                                   : No
  308. Text #21
  309. ID                                       : 23
  310. Format                                   : UTF-8
  311. Codec ID                                 : S_TEXT/UTF8
  312. Codec ID/Info                            : UTF-8 Plain Text
  313. Duration                                 : 1 h 28 min
  314. Bit rate                                 : 65 b/s
  315. Frame rate                               : 0.228 FPS
  316. Count of elements                        : 1216
  317. Stream size                              : 42.7 KiB (0%)
  318. Language                                 : Portuguese (PT)
  319. Default                                  : No
  320. Forced                                   : No
  321. Text #22
  322. ID                                       : 24
  323. Format                                   : UTF-8
  324. Codec ID                                 : S_TEXT/UTF8
  325. Codec ID/Info                            : UTF-8 Plain Text
  326. Duration                                 : 1 h 28 min
  327. Bit rate                                 : 63 b/s
  328. Frame rate                               : 0.230 FPS
  329. Count of elements                        : 1219
  330. Stream size                              : 41.0 KiB (0%)
  331. Language                                 : Romanian
  332. Default                                  : No
  333. Forced                                   : No
  334. Text #23
  335. ID                                       : 25
  336. Format                                   : UTF-8
  337. Codec ID                                 : S_TEXT/UTF8
  338. Codec ID/Info                            : UTF-8 Plain Text
  339. Duration                                 : 1 h 31 min
  340. Bit rate                                 : 100 b/s
  341. Frame rate                               : 0.229 FPS
  342. Count of elements                        : 1255
  343. Stream size                              : 67.1 KiB (0%)
  344. Language                                 : Russian
  345. Default                                  : No
  346. Forced                                   : No
  347. Text #24
  348. ID                                       : 26
  349. Format                                   : UTF-8
  350. Codec ID                                 : S_TEXT/UTF8
  351. Codec ID/Info                            : UTF-8 Plain Text
  352. Duration                                 : 1 h 31 min
  353. Bit rate                                 : 54 b/s
  354. Frame rate                               : 0.226 FPS
  355. Count of elements                        : 1240
  356. Stream size                              : 36.4 KiB (0%)
  357. Language                                 : Swedish
  358. Default                                  : No
  359. Forced                                   : No
  360. Text #25
  361. ID                                       : 27
  362. Format                                   : UTF-8
  363. Codec ID                                 : S_TEXT/UTF8
  364. Codec ID/Info                            : UTF-8 Plain Text
  365. Duration                                 : 1 h 31 min
  366. Bit rate                                 : 172 b/s
  367. Frame rate                               : 0.231 FPS
  368. Count of elements                        : 1265
  369. Stream size                              : 115 KiB (0%)
  370. Language                                 : Thai
  371. Default                                  : No
  372. Forced                                   : No
  373. Text #26
  374. ID                                       : 28
  375. Format                                   : UTF-8
  376. Codec ID                                 : S_TEXT/UTF8
  377. Codec ID/Info                            : UTF-8 Plain Text
  378. Duration                                 : 1 h 31 min
  379. Bit rate                                 : 64 b/s
  380. Frame rate                               : 0.225 FPS
  381. Count of elements                        : 1231
  382. Stream size                              : 43.0 KiB (0%)
  383. Language                                 : Turkish
  384. Default                                  : No
  385. Forced                                   : No
  386. Text #27
  387. ID                                       : 29
  388. Format                                   : UTF-8
  389. Codec ID                                 : S_TEXT/UTF8
  390. Codec ID/Info                            : UTF-8 Plain Text
  391. Duration                                 : 1 h 31 min
  392. Bit rate                                 : 82 b/s
  393. Frame rate                               : 0.231 FPS
  394. Count of elements                        : 1267
  395. Stream size                              : 55.0 KiB (0%)
  396. Language                                 : Vietnamese
  397. Default                                  : No
  398. Forced                                   : No
  399. Text #28
  400. ID                                       : 30
  401. Format                                   : UTF-8
  402. Codec ID                                 : S_TEXT/UTF8
  403. Codec ID/Info                            : UTF-8 Plain Text
  404. Duration                                 : 1 h 31 min
  405. Bit rate                                 : 57 b/s
  406. Frame rate                               : 0.231 FPS
  407. Count of elements                        : 1265
  408. Stream size                              : 38.2 KiB (0%)
  409. Title                                    : Simplified
  410. Language                                 : Chinese (Simplied)
  411. Default                                  : No
  412. Forced                                   : No
  413. Text #29
  414. ID                                       : 31
  415. Format                                   : UTF-8
  416. Codec ID                                 : S_TEXT/UTF8
  417. Codec ID/Info                            : UTF-8 Plain Text
  418. Duration                                 : 1 h 31 min
  419. Bit rate                                 : 57 b/s
  420. Frame rate                               : 0.231 FPS
  421. Count of elements                        : 1265
  422. Stream size                              : 38.3 KiB (0%)
  423. Title                                    : Traditional
  424. Language                                 : Chinese (Traditional)
  425. Default                                  : No
  426. Forced                                   : No
  427. Menu
  428. 01:29:08.000                             : en:End Credits
复制代码











回复

使用道具 举报

懒得打字嘛,点击右侧快捷回复 【右侧内容,后台自定义】
您需要登录后才可以回帖 登录 | 立即加入

本版积分规则

Archiver|小黑屋| 蓝光电影网 |网站地图

Copyright © 2021 Comsenz Inc. Powered by 蓝光电影网

蓝光电影网

本站内容由用户自主分享和转载自互联网,转载目的在于传递更多信息,并不代表本网赞同其观点和对其真实性负责。

如有侵权、违反国家法律政策行为,请联系我们,我们会第一时间及时清除和处理!

举报反馈邮箱:4k1080.com@gmail.com

快速回复 返回顶部 返回列表