找回密码

蓝光电影网

查看: 64|回复: 0

[2160p] 恶魔的光火.Prey.for.the.Devil.2022.2160p.UHD.BluRay.x265.10bit.HDR.TrueHD.7.1.Atmos-RARBG 8.05GB

[复制链接]
蓝光币
1082
发表于 2023-1-8 00:45:48 | 显示全部楼层 |阅读模式


◎标  题 恶魔的光火
◎译  名 鬼祷(台) / 魔鬼之光(港) / The Devil's Light
◎片  名 Prey for the Devil
◎年  代 2022
◎产  地 美国
◎类  别 惊悚 / 可骇
◎语  言 英语
◎上映日期 2022-10-26(法国) / 2022-10-28(美国)
◎IMDb评分 5.2/10 (7940人评价)
◎IMDb链接 https://www.imdb.com/title/tt9271672/
◎豆瓣评分 5.4/10 (827人评价)
◎豆瓣链接 https://movie.douban.com/subject/35053657/
◎片  长 93分钟
◎导  演 丹尼尔·斯坦 Daniel Stamm
◎编  剧 罗伯特·扎皮亚 Robert Zappia
       托德·R·琼斯 Todd R. Jones
       厄尔·里奇·琼斯 Earl Richey Jones
◎演  员 杰奎琳·拜尔斯 Jacqueline Byers
       维吉妮娅·马德森 Virginia Madsen
       科林·萨蒙 Colin Salmon
       尼古拉斯·瑞夫 Nicholas Ralph
       本·克劳斯 Ben Cross
       克里斯蒂安·纳瓦罗 Christian Navarro
       黛博拉·热切娃 Debora Zhecheva
       汤姆·福布斯 Tom Forbes
       丽莎·帕弗瑞 Lisa Palfrey
       波西·泰勒 Posy Taylor
       沃利扎·比尼夫 Velizar Binev
       欧文·戴维斯 Owen Davis
       雅娜·梅里诺娃 Yana Marinova
       亚妮娜·泰什娃 Yanina Kasheva
       马丁·塔斯科夫 Martin Taskov
       内森·巴尔 Nathan Barr
◎简  介
  加入教会未几的年轻修女安,深信替人驱魔是她天生的使命,但是天主教会却有个令她不满的不成文传统:只要神父可以停止驱魔仪式。幸亏,安和一个认可她驱魔天赋的导师相遇,因此破例让她介入并旁观驱魔课程,成为首位进修驱魔仪式的修女。安很快地展现出在驱魔上的才能,与此同时,众人却发现她与恶灵有着一段不成告人的曩昔……
  1. Video
  2. ID                                       : 1
  3. Format                                   : HEVC
  4. Format/Info                              : High Efficiency Video Coding
  5. Format profile                           : Main [email protected]@Main
  6. HDR format                               : SMPTE ST 2086, HDR10 compatible
  7. Codec ID                                 : V_MPEGH/ISO/HEVC
  8. Duration                                 : 1 h 33 min
  9. Bit rate                                 : 8 016 kb/s
  10. Width                                    : 3 840 pixels
  11. Height                                   : 1 604 pixels
  12. Display aspect ratio                     : 2.40:1
  13. Frame rate mode                          : Constant
  14. Frame rate                               : 23.976 (24000/1001) FPS
  15. Color space                              : YUV
  16. Chroma subsampling                       : 4:2:0
  17. Bit depth                                : 10 bits
  18. Bits/(Pixel*Frame)                       : 0.054
  19. Stream size                              : 5.22 GiB (65%)
  20. Writing library                          : x265 3.5+rarbg-HDR-38-20255e6:[Linux][clang 16.0.0][64 bit] 10bit
  21. Encoding settings                        : cpuid=1111039 / frame-threads=6 / wpp / no-pmode / no-pme / no-psnr / no-ssim / log-level=2 / input-csp=1 / input-res=3840x1604 / interlace=0 / total-frames=0 / level-idc=51 / high-tier=1 / uhd-bd=0 / ref=4 / no-allow-non-conformance / repeat-headers / annexb / aud / no-eob / no-eos / no-hrd / info / hash=0 / no-temporal-layers / no-open-gop / min-keyint=1 / keyint=24 / gop-lookahead=0 / bframes=4 / b-adapt=2 / b-pyramid / bframe-bias=0 / rc-lookahead=25 / lookahead-slices=4 / scenecut=40 / no-hist-scenecut / radl=0 / no-splice / no-intra-refresh / ctu=64 / min-cu-size=8 / rect / no-amp / max-tu-size=32 / tu-inter-depth=1 / tu-intra-depth=1 / limit-tu=0 / rdoq-level=2 / dynamic-rd=0.00 / no-ssim-rd / signhide / no-tskip / nr-intra=0 / nr-inter=0 / no-constrained-intra / strong-intra-smoothing / max-merge=3 / limit-refs=3 / no-limit-modes / me=3 / subme=3 / merange=57 / temporal-mvp / no-frame-dup / no-hme / weightp / no-weightb / no-analyze-src-pics / deblock=0:0 / no-sao / no-sao-non-deblock / rd=4 / selective-sao=0 / no-early-skip / rskip / no-fast-intra / no-tskip-fast / no-cu-lossless / no-b-intra / no-splitrd-skip / rdpenalty=0 / psy-rd=2.00 / psy-rdoq=1.00 / no-rd-refine / no-lossless / cbqpoffs=0 / crqpoffs=0 / rc=abr / bitrate=8000 / qcomp=0.60 / qpstep=4 / stats-write=0 / stats-read=2 / cplxblur=20.0 / qblur=0.5 / ipratio=1.40 / pbratio=1.30 / aq-mode=1 / aq-strength=1.00 / cutree / zone-count=0 / no-strict-cbr / qg-size=32 / no-rc-grain / qpmax=69 / qpmin=0 / no-const-vbv / sar=1 / overscan=0 / videoformat=5 / range=0 / colorprim=9 / transfer=16 / colormatrix=9 / chromaloc=0 / display-window=0 / master-display=G(13250,34500)B(7500,3000)R(34000,16000)WP(15635,16450)L(10000000,1) / cll=1713,388 / min-luma=0 / max-luma=1023 / log2-max-poc-lsb=8 / vui-timing-info / vui-hrd-info / slices=1 / no-opt-qp-pps / no-opt-ref-list-length-pps / no-multi-pass-opt-rps / scenecut-bias=0.05 / hist-threshold=0.03 / no-opt-cu-delta-qp / no-aq-motion / hdr10 / hdr10-opt / no-dhdr10-opt / no-idr-recovery-sei / analysis-reuse-level=0 / analysis-save-reuse-level=0 / analysis-load-reuse-level=0 / scale-factor=0 / refine-intra=0 / refine-inter=0 / refine-mv=1 / refine-ctu-distortion=0 / no-limit-sao / ctu-info=0 / no-lowpass-dct / refine-analysis-type=0 / copy-pic=1 / max-ausize-factor=1.0 / no-dynamic-refine / no-single-sei / no-hevc-aq / no-svt / no-field / qp-adaptation-range=1.00 / scenecut-aware-qp=0conformance-window-offsets / right=0 / bottom=0 / decoder-max-rate=0 / no-vbv-live-multi-pass
  22. Default                                  : Yes
  23. Forced                                   : No
  24. Color range                              : Limited
  25. Color primaries                          : BT.2020
  26. Transfer characteristics                 : PQ
  27. Matrix coefficients                      : BT.2020 non-constant
  28. Mastering display color primaries        : Display P3
  29. Mastering display luminance              : min: 0.0001 cd/m2, max: 1000 cd/m2
  30. Maximum Content Light Level              : 1713 cd/m2
  31. Maximum Frame-Average Light Level        : 388 cd/m2
  32. Audio #1
  33. ID                                       : 2
  34. Format                                   : MLP FBA 16-ch
  35. Format/Info                              : Meridian Lossless Packing FBA with 16-channel presentation
  36. Commercial name                          : Dolby TrueHD with Dolby Atmos
  37. Codec ID                                 : A_TRUEHD
  38. Duration                                 : 1 h 33 min
  39. Bit rate mode                            : Variable
  40. Bit rate                                 : 3 905 kb/s
  41. Maximum bit rate                         : 7 512 kb/s
  42. Channel(s)                               : 8 channels
  43. Channel layout                           : L R C LFE Ls Rs Lb Rb
  44. Sampling rate                            : 48.0 kHz
  45. Frame rate                               : 1 200.000 FPS (40 SPF)
  46. Compression mode                         : Lossless
  47. Stream size                              : 2.54 GiB (32%)
  48. Title                                    : English TrueHD Atmos 7.1
  49. Language                                 : English
  50. Default                                  : Yes
  51. Forced                                   : No
  52. Number of dynamic objects                : 11
  53. Bed channel count                        : 1 channel
  54. Bed channel configuration                : LFE
  55. Audio #2
  56. ID                                       : 3
  57. Format                                   : AC-3
  58. Format/Info                              : Audio Coding 3
  59. Commercial name                          : Dolby Digital
  60. Codec ID                                 : A_AC3
  61. Duration                                 : 1 h 33 min
  62. Bit rate mode                            : Constant
  63. Bit rate                                 : 384 kb/s
  64. Channel(s)                               : 6 channels
  65. Channel layout                           : L R C LFE Ls Rs
  66. Sampling rate                            : 48.0 kHz
  67. Frame rate                               : 31.250 FPS (1536 SPF)
  68. Compression mode                         : Lossy
  69. Stream size                              : 256 MiB (3%)
  70. Title                                    : English DD 5.1
  71. Language                                 : English
  72. Service kind                             : Complete Main
  73. Default                                  : No
  74. Forced                                   : No
  75. Text #1
  76. ID                                       : 4
  77. Format                                   : UTF-8
  78. Codec ID                                 : S_TEXT/UTF8
  79. Codec ID/Info                            : UTF-8 Plain Text
  80. Duration                                 : 1 h 26 min
  81. Bit rate                                 : 35 b/s
  82. Frame rate                               : 0.145 FPS
  83. Count of elements                        : 748
  84. Stream size                              : 22.4 KiB (0%)
  85. Title                                    : English SRT
  86. Language                                 : English
  87. Default                                  : Yes
  88. Forced                                   : No
  89. Text #2
  90. ID                                       : 5
  91. Format                                   : UTF-8
  92. Codec ID                                 : S_TEXT/UTF8
  93. Codec ID/Info                            : UTF-8 Plain Text
  94. Duration                                 : 1 h 26 min
  95. Bit rate                                 : 48 b/s
  96. Frame rate                               : 0.206 FPS
  97. Count of elements                        : 1073
  98. Stream size                              : 30.5 KiB (0%)
  99. Title                                    : English SDH SRT
  100. Language                                 : English
  101. Default                                  : No
  102. Forced                                   : No
  103. Menu
  104. 00:00:00.000                             : en:Chapter 01
  105. 00:03:38.509                             : en:Chapter 02
  106. 00:11:02.995                             : en:Chapter 03
  107. 00:17:43.187                             : en:Chapter 04
  108. 00:23:15.477                             : en:Chapter 05
  109. 00:31:54.621                             : en:Chapter 06
  110. 00:35:28.793                             : en:Chapter 07
  111. 00:42:59.326                             : en:Chapter 08
  112. 00:47:39.523                             : en:Chapter 09
  113. 00:55:41.588                             : en:Chapter 10
  114. 00:59:14.926                             : en:Chapter 11
  115. 01:04:20.398                             : en:Chapter 12
  116. 01:07:03.352                             : en:Chapter 13
  117. 01:11:11.642                             : en:Chapter 14
  118. 01:20:41.086                             : en:Chapter 15
  119. 01:24:56.174                             : en:Chapter 16
复制代码











回复

使用道具 举报

懒得打字嘛,点击右侧快捷回复 【右侧内容,后台自定义】
您需要登录后才可以回帖 登录 | 立即加入

本版积分规则

Archiver|小黑屋| 蓝光电影网 |网站地图

Copyright © 2021 Comsenz Inc. Powered by 蓝光电影网

蓝光电影网

本站内容由用户自主分享和转载自互联网,转载目的在于传递更多信息,并不代表本网赞同其观点和对其真实性负责。

如有侵权、违反国家法律政策行为,请联系我们,我们会第一时间及时清除和处理!

举报反馈邮箱:[email protected]

快速回复 返回顶部 返回列表