找回密码

蓝光电影网

查看: 36|回复: 0

[大长今][全54集][韩语台配双音轨][繁中硬字幕].Jewel.in.the.Palace.S01.2003.1080p.Hami.WEB-DL.x264.AAC-ADWeb 139.34GB

[复制链接]
蓝光币
1084
发表于 2023-1-8 12:50:37 | 显示全部楼层 |阅读模式
[大长今][全54集][韩语台配双音轨][繁中硬字幕].Jewel.in.the.Palace.S01.2003.1080p.Hami.WEB-DL.x264.AAC-ADWeb 139.34GB-1.jpg
◎译  名 大长今 / Dae Jang-geum / A Jewel in the Palace / The Great Jang-Geum / Una joya en el palacio
◎片  名 대장금
◎年  代 2003
◎产  地 韩国
◎类  别 剧情 / 列传 / 历史
◎语  言 韩语
◎上映日期 2003-09-15(韩国)
◎IMDb链接 https://www.imdb.com/title/tt0409546/
◎IMDb评分 8.5/10 (3755人评价)
◎豆瓣评分 8.4/10 (60312人评价)
◎豆瓣链接 https://movie.douban.com/subject/1418660/
◎集  数 54
◎片  长 60分钟
◎导  演 李炳勋 Byoung-hoon Lee
◎编  剧 金英贤 Yeong-hyeon Kim
◎演  员 李英爱 Yeong-ae Lee
       池珍熙 Jin-hee Ji
       任豪 Ho Lim
       洪利娜 Ri-na Hong
       赵贞恩 Jeong Un Cho
       琴宝罗 Bo-ra Geum
       韩智敏 Ji-min Han
       赵卿焕 Kyeong-hwan Jo
       金慧渲 Hye-seon Kim
       金汝珍 Yeo-jin Kim
       李世荣 Se-yeong Lee
       李世恩 Se-eun Lee
       孟尚勋 Sang-hun Maeng
       朴灿焕 Chan-hwan Park
       朴恩德 Eun-hye Park
       甄美里 Mi-ri Gyeon
       李必模 Pill-Mo Lee
       梁美京 Mi-kyeong Yang
       崔镇浩 Jin-ho Choi
       吕运计 Woon-gye Yeo
       崔子惠 Ja-Hye Choi
       权昭贤 So-hyun Kwon
       金昭怡 Kim So-yi
       徐光载 Seo Gwang-jae
       劉炯官 Yoo Hyeong-kwan
       洪承范 Seung-bum Hong
       魏晶琦 Rita Wei
       杨凯凯 Carey Yang
       魏伯勤 Boqin Wei
       朴贞淑 Park Jung Suk
       符爽 Shuang Fu
       朱雅凛 Ah-reum Joo
       申国 Kuk Shin
       李玲诗 Lee Ip Sae
       李钟郁 Jung-yul Lee
       李慧尚 Hye-sang Lee
       郑志顺 Ji-Soon Jung
       李昌焕 Chang-hwan Lee
       罗圣均 Sung-kyoon Na
       汤灿 Can Tang
       金菩萝  

◎简  介
    长今(李英爱 饰)诞生在一个贱民家庭,他的父亲徐天寿本来昔时曾是内禁卫军官,受命赐予废太后允氏毒药,随后允氏的儿子燕山君即位继位,天寿为了保全本身,去官而去。天寿在途中救了长今母亲,两人结为连理,抛头露面。岂料皇上燕山君现在欲为母报仇,命令追捕一切昔时介入杀死允太后的人,长今母亲逃难路上不幸丧命,临终前叮嘱长今进宫。落空了怙恃的小长今幸得宫中生手姜德久一家收留,并在他的放置下进入了宫中御厨房做工,起头了她冗长的宫中过程。
  韩尚宫(梁美京 饰)很是照顾聪明勤学的小长今,但是崔尚宫却由于与韩尚宫的反面而对长今处处刁难,每次在崔尚宫的设局谗谄下,长今都以自己的蕙质兰心和对峙不懈逐一化解,但是她母亲的身世奥秘却逐步浮出水面,还有更大的困难挡在长今的眼前。

  1. Video
  2. ID : 1
  3. Format : AVC
  4. Format/Info : Advanced Video Codec
  5. Format profile : [email protected]
  6. Format settings : CABAC / 3 Ref Frames
  7. Format settings, CABAC : Yes
  8. Format settings, Reference fra : 3 frames
  9. Format settings, GOP : M=1, N=30
  10. Codec ID : V_MPEG4/ISO/AVC
  11. Duration : 1 h 1 min
  12. Bit rate : 5 872 kb/s
  13. Width : 1 920 pixels
  14. Height : 1 080 pixels
  15. Display aspect ratio : 16:9
  16. Frame rate mode : Constant
  17. Frame rate : 29.970 (29970/1000) FPS
  18. Color space : YUV
  19. Chroma subsampling : 4:2:0
  20. Bit depth : 8 bits
  21. Scan type : Progressive
  22. Bits/(Pixel*Frame) : 0.094
  23. Stream size : 2.52 GiB (95%)
  24. Writing library : x264 core 157 r2935 545de2f
  25. Encoding settings : cabac=1 / ref=3 / deblock=1:0:0 / analyse=0x3:0x113 / me=hex / subme=7 / psy=1 / psy_rd=1.00:0.00 / mixed_ref=1 / me_range=16 / chroma_me=1 / trellis=1 / 8x8dct=1 / cqm=0 / deadzone=21,11 / fast_pskip=1 / chroma_qp_offset=-2 / threads=34 / lookahead_threads=5 / sliced_threads=0 / nr=0 / decimate=1 / interlaced=0 / bluray_compat=0 / constrained_intra=0 / bframes=0 / weightp=2 / keyint=30 / keyint_min=16 / scenecut=0 / intra_refresh=0 / rc_lookahead=30 / rc=abr / mbtree=1 / bitrate=5872 / ratetol=1.0 / qcomp=0.60 / qpmin=0 / qpmax=69 / qpstep=4 / vbv_maxrate=5900 / vbv_bufsize=5872 / nal_hrd=none / filler=0 / ip_ratio=1.40 / aq=1:1.00
  26. Default : Yes
  27. Forced : No

  28. Audio #1
  29. ID : 2
  30. Format : AAC LC
  31. Format/Info : Advanced Audio Codec Low Complexity
  32. Codec ID : A_AAC-2
  33. Duration : 1 h 1 min
  34. Bit rate : 192 kb/s
  35. Channel(s) : 2 channels
  36. Channel layout : L R
  37. Sampling rate : 48.0 kHz
  38. Frame rate : 46.875 FPS (1024 SPF)
  39. Compression mode : Lossy
  40. Stream size : 85.4 MiB (3%)
  41. Title : 韩语
  42. Language : Korean
  43. Default : Yes
  44. Forced : No

  45. Audio #2
  46. ID : 3
  47. Format : AAC LC
  48. Format/Info : Advanced Audio Codec Low Complexity
  49. Codec ID : A_AAC-2
  50. Duration : 1 h 1 min
  51. Bit rate : 128 kb/s
  52. Channel(s) : 2 channels
  53. Channel layout : L R
  54. Sampling rate : 48.0 kHz
  55. Frame rate : 46.875 FPS (1024 SPF)
  56. Compression mode : Lossy
  57. Stream size : 56.8 MiB (2%)
  58. Title : 国语
  59. Language : Chinese
  60. Default : No
  61. Forced : No
复制代码
[大长今][全54集][韩语台配双音轨][繁中硬字幕].Jewel.in.the.Palace.S01.2003.1080p.Hami.WEB-DL.x264.AAC-ADWeb 139.34GB-2.png
[大长今][全54集][韩语台配双音轨][繁中硬字幕].Jewel.in.the.Palace.S01.2003.1080p.Hami.WEB-DL.x264.AAC-ADWeb 139.34GB-3.png
[大长今][全54集][韩语台配双音轨][繁中硬字幕].Jewel.in.the.Palace.S01.2003.1080p.Hami.WEB-DL.x264.AAC-ADWeb 139.34GB-4.png
[大长今][全54集][韩语台配双音轨][繁中硬字幕].Jewel.in.the.Palace.S01.2003.1080p.Hami.WEB-DL.x264.AAC-ADWeb 139.34GB-5.png








回复

使用道具 举报

懒得打字嘛,点击右侧快捷回复 【右侧内容,后台自定义】
您需要登录后才可以回帖 登录 | 立即加入

本版积分规则

Archiver|小黑屋| 蓝光电影网 |网站地图

Copyright © 2021 Comsenz Inc. Powered by 蓝光电影网

蓝光电影网

本站内容由用户自主分享和转载自互联网,转载目的在于传递更多信息,并不代表本网赞同其观点和对其真实性负责。

如有侵权、违反国家法律政策行为,请联系我们,我们会第一时间及时清除和处理!

举报反馈邮箱:[email protected]

快速回复 返回顶部 返回列表