找回密码

蓝光电影网

查看: 96|回复: 1

[剧情] 是,我不会游泳.Yes.I.Cant.Swim.2022.JAPANESE.1080p.BluRay.x264.DTS-iKiW 11.50GB

[复制链接]
蓝光币
1080
发表于 2023-1-8 13:36:39 | 显示全部楼层 |阅读模式


◎标  题 是,我不会泅水
◎译  名 是的、不会泅水 / 是的,我不会泅水 / 救救旱鸭子(台) / Yes /  I Can't Swim
◎片  名 はい、泳げません
◎年  代 2022
◎产  地 日本
◎类  别 剧情
◎语  言 日语
◎上映日期 2022-06-10(日本)
◎IMDb评分 5.4/10 (41人评价)
◎IMDb链接 https://www.imdb.com/title/tt18750342/
◎豆瓣链接 https://movie.douban.com/subject/35758809/
◎片  长 120分钟
◎导  演 渡边谦作 Kensaku Watanabe
◎编  剧 渡边谦作 Kensaku Watanabe
◎演  员 长谷川博己 Hiroki Hasegawa
       绫濑遥 Haruka Ayase
       麻生久美子 Kumiko Aso
       阿部纯子 Abe Junko
       小林薰 Kaoru Kobayashi
       伊佐山博子 Hiroko Isayama
       占部屋子 Fusako Urabe
◎简  介
  电影《是的、不会泅水》改编自高桥秀实的著作,长谷川博己饰演的配角明显是一副连都水不敢碰的旱鸭子,却总是找捏词的固执哲学家小鸟游雄司。绫濑遥饰演在教泅水方面很是热情,但除此之外都很拙笨的怪僻教练薄原静香。                                    
                                雄司为大学哲学教授,惧怕面临水,完全不会泅水,某天,他总是在人和水的关系上推三阻四,死力避开水。在强行劝说雄司入会的教练静香的课堂里,和热烈的妇女们一路起头进修泅水,静香说:「比起陆地,水中更轻易保存」,而雄司一边由于对水的恐惧而大吵大闹,但一边仍然继续上课。由于某个来由惧怕水的雄司,起头了一进一退的日子。
  1. Video
  2. ID                                       : 1
  3. Format                                   : AVC
  4. Format/Info                              : Advanced Video Codec
  5. Format profile                           : [email protected]
  6. Format settings                          : CABAC / 5 Ref Frames
  7. Format settings, CABAC                   : Yes
  8. Format settings, Reference frames        : 5 frames
  9. Codec ID                                 : V_MPEG4/ISO/AVC
  10. Duration                                 : 1 h 53 min
  11. Bit rate                                 : 13.0 Mb/s
  12. Width                                    : 1 920 pixels
  13. Height                                   : 804 pixels
  14. Display aspect ratio                     : 2.40:1
  15. Frame rate mode                          : Constant
  16. Frame rate                               : 23.976 (24000/1001) FPS
  17. Color space                              : YUV
  18. Chroma subsampling                       : 4:2:0
  19. Bit depth                                : 8 bits
  20. Scan type                                : Progressive
  21. Bits/(Pixel*Frame)                       : 0.352
  22. Stream size                              : 10.3 GiB (90%)
  23. Title                                    : Jubowo @ WiKi
  24. Writing library                          : x264 core 164 r3101 b093bbe
  25. Encoding settings                        : cabac=1 / ref=5 / deblock=1:-3:-3 / analyse=0x3:0x133 / me=umh / subme=11 / psy=1 / psy_rd=1.00:0.10 / mixed_ref=1 / me_range=32 / chroma_me=1 / trellis=2 / 8x8dct=1 / cqm=0 / deadzone=21,11 / fast_pskip=0 / chroma_qp_offset=-3 / threads=25 / lookahead_threads=6 / sliced_threads=0 / nr=0 / decimate=0 / interlaced=0 / bluray_compat=0 / constrained_intra=0 / bframes=12 / b_pyramid=2 / b_adapt=1 / b_bias=0 / direct=3 / weightb=1 / open_gop=0 / weightp=2 / keyint=250 / keyint_min=23 / scenecut=40 / intra_refresh=0 / rc=2pass / mbtree=0 / bitrate=13030 / ratetol=1.0 / qcomp=0.70 / qpmin=0 / qpmax=69 / qpstep=4 / cplxblur=20.0 / qblur=0.5 / ip_ratio=1.40 / pb_ratio=1.30 / aq=3:0.90
  26. Language                                 : Japanese
  27. Default                                  : Yes
  28. Forced                                   : No
  29. Audio
  30. ID                                       : 2
  31. Format                                   : DTS
  32. Format/Info                              : Digital Theater Systems
  33. Codec ID                                 : A_DTS
  34. Duration                                 : 1 h 53 min
  35. Bit rate mode                            : Constant
  36. Bit rate                                 : 1 509 kb/s
  37. Channel(s)                               : 6 channels
  38. Channel layout                           : C L R Ls Rs LFE
  39. Sampling rate                            : 48.0 kHz
  40. Frame rate                               : 93.750 FPS (512 SPF)
  41. Bit depth                                : 24 bits
  42. Compression mode                         : Lossy
  43. Stream size                              : 1.19 GiB (10%)
  44. Language                                 : Japanese
  45. Default                                  : Yes
  46. Forced                                   : No
  47. Text #1
  48. ID                                       : 3
  49. Format                                   : UTF-8
  50. Codec ID                                 : S_TEXT/UTF8
  51. Codec ID/Info                            : UTF-8 Plain Text
  52. Duration                                 : 1 h 48 min
  53. Bit rate                                 : 47 b/s
  54. Frame rate                               : 0.219 FPS
  55. Count of elements                        : 1429
  56. Stream size                              : 38.0 KiB (0%)
  57. Language                                 : English
  58. Default                                  : Yes
  59. Forced                                   : No
  60. Text #2
  61. ID                                       : 4
  62. Format                                   : ASS
  63. Codec ID                                 : S_TEXT/ASS
  64. Codec ID/Info                            : Advanced Sub Station Alpha
  65. Duration                                 : 1 h 52 min
  66. Bit rate                                 : 79 b/s
  67. Frame rate                               : 0.217 FPS
  68. Count of elements                        : 1466
  69. Compression mode                         : Lossless
  70. Stream size                              : 65.5 KiB (0%)
  71. Title                                    : 简体
  72. Language                                 : Mandarin (Hans)
  73. Default                                  : No
  74. Forced                                   : No
  75. Text #3
  76. ID                                       : 5
  77. Format                                   : ASS
  78. Codec ID                                 : S_TEXT/ASS
  79. Codec ID/Info                            : Advanced Sub Station Alpha
  80. Duration                                 : 1 h 52 min
  81. Bit rate                                 : 79 b/s
  82. Frame rate                               : 0.217 FPS
  83. Count of elements                        : 1466
  84. Compression mode                         : Lossless
  85. Stream size                              : 65.5 KiB (0%)
  86. Title                                    : 繁體
  87. Language                                 : Mandarin (Hant)
  88. Default                                  : No
  89. Forced                                   : No
  90. Menu
  91. 00:00:00.000                             : en:Chapter 01
  92. 00:13:16.254                             : en:Chapter 02
  93. 00:30:44.342                             : en:Chapter 03
  94. 00:40:46.444                             : en:Chapter 04
  95. 00:51:45.019                             : en:Chapter 05
  96. 01:09:28.164                             : en:Chapter 06
  97. 01:19:30.766                             : en:Chapter 07
  98. 01:26:14.586                             : en:Chapter 08
  99. 01:36:49.554                             : en:Chapter 09
  100. 01:47:41.914                             : en:Chapter 10
复制代码











回复

使用道具 举报

蓝光币
382
发表于 2023-1-9 19:50:30 | 显示全部楼层

楼主太厉害了!楼主,电影应该很好看我觉得蓝光电影网真是个好地方!
回复 支持 反对

使用道具 举报

懒得打字嘛,点击右侧快捷回复 【右侧内容,后台自定义】
您需要登录后才可以回帖 登录 | 立即加入

本版积分规则

Archiver|小黑屋| 蓝光电影网 |网站地图

Copyright © 2021 Comsenz Inc. Powered by 蓝光电影网

蓝光电影网

本站内容由用户自主分享和转载自互联网,转载目的在于传递更多信息,并不代表本网赞同其观点和对其真实性负责。

如有侵权、违反国家法律政策行为,请联系我们,我们会第一时间及时清除和处理!

举报反馈邮箱:[email protected]

快速回复 返回顶部 返回列表