找回密码

蓝光电影网

查看: 18|回复: 0

[剧情] 特征:无.Identification.Marks.None.1965.POLISH.1080p.WEBRip.x264-VXT 1.38GB

[复制链接]
蓝光币
1084
发表于 2023-1-8 14:12:28 | 显示全部楼层 |阅读模式


◎译  名 特征:无 / Identification Marks: None
◎片  名 Rysopis
◎年  代 1965
◎产  地 波兰
◎类  别 剧情
◎语  言 波兰语
◎上映日期 1965-11-18(波兰)
◎IMDb链接 https://www.imdb.com/title/tt0059668/
◎豆瓣评分 7.1/10 (89人评价)
◎豆瓣链接 https://movie.douban.com/subject/3380974/
◎片  长 Argentina: 80 分钟
◎导  演 杰兹·斯科利莫夫斯基 Jerzy Skolimowski
◎编  剧 杰兹·斯科利莫夫斯基 Jerzy Skolimowski
◎演  员 杰兹·斯科利莫夫斯基 Jerzy Skolimowski
       埃尔兹别塔·奇日弗斯卡 Elzbieta Czyzewska
       塔德乌什·明茨 Tadeusz Minc
       Jacek Szczek Jacek Szczek
       安杰伊·扎尔内茨基 Andrzej Zarnecki
       Krzysztof Sadowski Krzysztof Sadowski
       Witold Mickiewicz Witold Mickiewicz
       杰兹·斯科利莫夫斯基 Jerzy Skolimowski
◎简  介
  1965年荷蘭阿納姆電影節大獎                                       
                                    史高林莫斯基含自傳成份的第一部片,描寫一偛粷M現狀的青年(史高林莫斯基親自饰演)在半天裡的心路歷程。安德烈要在短短數小時內決定參加為期兩年的兵役,抑或繼續學業和面對現實的社會?安德烈一向將他的身份與布景隱藏,不想向任何人揭穿,就算同居女友泰蕾莎對他亦一無所知。安德烈與泰蕾莎之間的隔閡,恰好暗示兩人之間面臨決裂。雖然安德烈答應接見他的軍官會依時報到,但冷靜下來時卻盤算有沒有其他值得留下的来由。即使有太多的失望與挫折:與泰蕾莎的愛情生活不快意,愛犬又因染上瘋狗症而被人性毀滅,安德烈並沒有準備離去的跡象,只是尽力地找尋留下來的藉口。當安德烈不斷與他的朋友碰面,時間逐漸磨灭,他亦不斷進行自我的鬥爭。影片發展下去,這傁駢艟骋话愕穆贸蹋瑵u漸演變成找尋自我的心路歷程。史高林莫斯基的電影皆以年轻人面對的社會問題為中心,對心態的刻劃十...
  1. Video
  2. ID                                       : 1
  3. Format                                   : AVC
  4. Format/Info                              : Advanced Video Codec
  5. Format profile                           : [email protected]
  6. Format settings                          : CABAC / 4 Ref Frames
  7. Format settings, CABAC                   : Yes
  8. Format settings, Reference frames        : 4 frames
  9. Codec ID                                 : avc1
  10. Codec ID/Info                            : Advanced Video Coding
  11. Duration                                 : 1 h 12 min
  12. Bit rate                                 : 2 500 kb/s
  13. Width                                    : 1 920 pixels
  14. Height                                   : 1 060 pixels
  15. Display aspect ratio                     : 16:9
  16. Frame rate mode                          : Constant
  17. Frame rate                               : 25.000 FPS
  18. Color space                              : YUV
  19. Chroma subsampling                       : 4:2:0
  20. Bit depth                                : 8 bits
  21. Scan type                                : Progressive
  22. Bits/(Pixel*Frame)                       : 0.049
  23. Stream size                              : 1.26 GiB (92%)
  24. Writing library                          : x264 core 152 r2851M ba24899
  25. Encoding settings                        : cabac=1 / ref=4 / deblock=1:-1:-1 / analyse=0x3:0x113 / me=umh / subme=9 / psy=1 / psy_rd=1.00:0.15 / mixed_ref=1 / me_range=24 / chroma_me=1 / trellis=2 / 8x8dct=1 / cqm=0 / deadzone=21,11 / fast_pskip=1 / chroma_qp_offset=-3 / threads=16 / lookahead_threads=4 / sliced_threads=0 / nr=0 / decimate=1 / interlaced=0 / bluray_compat=0 / constrained_intra=0 / bframes=3 / b_pyramid=2 / b_adapt=2 / b_bias=0 / direct=3 / weightb=1 / open_gop=0 / weightp=2 / keyint=250 / keyint_min=25 / scenecut=40 / intra_refresh=0 / rc_lookahead=50 / rc=2pass / mbtree=1 / bitrate=2500 / ratetol=1.0 / qcomp=0.60 / qpmin=0 / qpmax=69 / qpstep=4 / cplxblur=20.0 / qblur=0.5 / vbv_maxrate=31250 / vbv_bufsize=31250 / nal_hrd=none / filler=0 / ip_ratio=1.40 / aq=3:1.00
  26. Encoded date                             : UTC 2023-01-07 19:44:33
  27. Tagged date                              : UTC 2023-01-07 19:44:33
  28. Codec configuration box                  : avcC
  29. Audio
  30. ID                                       : 2
  31. Format                                   : AAC LC
  32. Format/Info                              : Advanced Audio Codec Low Complexity
  33. Codec ID                                 : mp4a-40-2
  34. Duration                                 : 1 h 12 min
  35. Bit rate mode                            : Constant
  36. Bit rate                                 : 224 kb/s
  37. Channel(s)                               : 2 channels
  38. Channel layout                           : L R
  39. Sampling rate                            : 48.0 kHz
  40. Frame rate                               : 46.875 FPS (1024 SPF)
  41. Compression mode                         : Lossy
  42. Stream size                              : 116 MiB (8%)
  43. Language                                 : Polish
  44. Default                                  : Yes
  45. Alternate group                          : 1
  46. Encoded date                             : UTC 2023-01-07 19:44:33
  47. Tagged date                              : UTC 2023-01-07 19:44:33
复制代码











回复

使用道具 举报

懒得打字嘛,点击右侧快捷回复 【右侧内容,后台自定义】
您需要登录后才可以回帖 登录 | 立即加入

本版积分规则

Archiver|小黑屋| 蓝光电影网 |网站地图

Copyright © 2021 Comsenz Inc. Powered by 蓝光电影网

蓝光电影网

本站内容由用户自主分享和转载自互联网,转载目的在于传递更多信息,并不代表本网赞同其观点和对其真实性负责。

如有侵权、违反国家法律政策行为,请联系我们,我们会第一时间及时清除和处理!

举报反馈邮箱:[email protected]

快速回复 返回顶部 返回列表