找回密码

蓝光电影网

查看: 20|回复: 0

[剧情] 舞魂.Encore.2022.FRENCH.1080p.WEBRip.DD5.1.x264-NOGRP 5.73GB

[复制链接]
蓝光币
1084
发表于 2023-1-8 22:11:02 | 显示全部楼层 |阅读模式


◎标  题 舞魂
◎片  名 En corps
◎年  代 2022
◎产  地 法国
◎类  别 剧情 / 笑剧
◎语  言 法语
◎上映日期 2022年3月30日
◎IMDb评分 7.3/10 (1230人评价)
◎IMDb链接 https://www.imdb.com/title/tt13531468/
◎豆瓣链接 https://movie.douban.com/subject/35358852/
◎片  长 分钟
◎导  演 塞德里克·克拉皮斯
◎编  剧 塞德里克·克拉皮斯
       圣地亚哥·阿米戈雷纳
◎演  员 Marion Barbeau
       皮奥·马麦
       弗朗索瓦·西维尔
       Hofesh Shechter
       德尼·波达利德斯
       穆里尔·罗宾
       索海拉·雅各布
       Mehdi Baki
       艾莉西亚·乔达诺
       Robinson Cassarino
       戴米恩·查潘
       Marion Gautier de Charnacé
       Marilou Aussilloux
       玛蒂尔德·瓦尔尼耶
       Florence Clerc
       Louis Lancien
       Agathe Berman
       齐达内·苏阿内
       Fanny Sage
       Kevin Garnichat
       Jade Phan-Gia
◎简  介
  Elise, a very promising classical dancer, is injured during a performance at 26 years old. Although she's told she will no longer be able to dance, she will try to find a new direction in contemporary dance.
  1. Video
  2. ID                                       : 1
  3. Format                                   : AVC
  4. Format/Info                              : Advanced Video Codec
  5. Format profile                           : [email protected]
  6. Format settings                          : CABAC / 4 Ref Frames
  7. Format settings, CABAC                   : Yes
  8. Format settings, Reference frames        : 4 frames
  9. Codec ID                                 : V_MPEG4/ISO/AVC
  10. Duration                                 : 1 h 57 min
  11. Bit rate                                 : 6 610 kb/s
  12. Width                                    : 1 920 pixels
  13. Height                                   : 1 038 pixels
  14. Display aspect ratio                     : 1.85:1
  15. Frame rate mode                          : Constant
  16. Frame rate                               : 24.000 FPS
  17. Color space                              : YUV
  18. Chroma subsampling                       : 4:2:0
  19. Bit depth                                : 8 bits
  20. Scan type                                : Progressive
  21. Bits/(Pixel*Frame)                       : 0.138
  22. Stream size                              : 5.41 GiB (94%)
  23. Default                                  : Yes
  24. Forced                                   : No
  25. Color range                              : Limited
  26. Color primaries                          : BT.709
  27. Transfer characteristics                 : BT.709
  28. Matrix coefficients                      : BT.709
  29. Audio
  30. ID                                       : 2
  31. Format                                   : AC-3
  32. Format/Info                              : Audio Coding 3
  33. Commercial name                          : Dolby Digital
  34. Codec ID                                 : A_AC3
  35. Duration                                 : 1 h 57 min
  36. Bit rate mode                            : Constant
  37. Bit rate                                 : 384 kb/s
  38. Channel(s)                               : 6 channels
  39. Channel layout                           : L R C LFE Ls Rs
  40. Sampling rate                            : 48.0 kHz
  41. Frame rate                               : 31.250 FPS (1536 SPF)
  42. Compression mode                         : Lossy
  43. Stream size                              : 322 MiB (5%)
  44. Title                                    : French
  45. Language                                 : French
  46. Service kind                             : Complete Main
  47. Default                                  : Yes
  48. Forced                                   : No
  49. Text #1
  50. ID                                       : 3
  51. Format                                   : UTF-8
  52. Codec ID                                 : S_TEXT/UTF8
  53. Codec ID/Info                            : UTF-8 Plain Text
  54. Duration                                 : 1 h 40 min
  55. Bit rate                                 : 54 b/s
  56. Frame rate                               : 0.213 FPS
  57. Count of elements                        : 1286
  58. Stream size                              : 40.3 KiB (0%)
  59. Language                                 : English
  60. Default                                  : Yes
  61. Forced                                   : No
  62. Text #2
  63. ID                                       : 4
  64. Format                                   : UTF-8
  65. Codec ID                                 : S_TEXT/UTF8
  66. Codec ID/Info                            : UTF-8 Plain Text
  67. Duration                                 : 1 h 22 min
  68. Bit rate                                 : 5 b/s
  69. Frame rate                               : 0.026 FPS
  70. Count of elements                        : 131
  71. Stream size                              : 3.41 KiB (0%)
  72. Title                                    : French (forced)
  73. Language                                 : French (FR)
  74. Default                                  : No
  75. Forced                                   : Yes
  76. Menu
  77. 00:00:00.000                             : en:Chapter 01
  78. 00:11:19.625                             : en:Chapter 02
  79. 00:19:45.708                             : en:Chapter 03
  80. 00:28:24.458                             : en:Chapter 04
  81. 00:40:01.000                             : en:Chapter 05
  82. 00:49:17.083                             : en:Chapter 06
  83. 01:00:20.166                             : en:Chapter 07
  84. 01:11:10.291                             : en:Chapter 08
  85. 01:19:22.916                             : en:Chapter 09
  86. 01:28:50.708                             : en:Chapter 10
  87. 01:39:42.208                             : en:Chapter 11
复制代码











回复

使用道具 举报

懒得打字嘛,点击右侧快捷回复 【右侧内容,后台自定义】
您需要登录后才可以回帖 登录 | 立即加入

本版积分规则

Archiver|小黑屋| 蓝光电影网 |网站地图

Copyright © 2021 Comsenz Inc. Powered by 蓝光电影网

蓝光电影网

本站内容由用户自主分享和转载自互联网,转载目的在于传递更多信息,并不代表本网赞同其观点和对其真实性负责。

如有侵权、违反国家法律政策行为,请联系我们,我们会第一时间及时清除和处理!

举报反馈邮箱:[email protected]

快速回复 返回顶部 返回列表