找回密码

蓝光电影网

查看: 50|回复: 2

[2160p-WEB] 一落千丈:波音大调查[中文字幕].Downfall.The.Case.Against.Boeing.2022.2160p.NF.WEB-DL.DDP5.1.DV.MP4.x265-DVSUX 11.88GB

[复制链接]
蓝光币
1084
发表于 2023-1-8 22:27:52 | 显示全部楼层 |阅读模式


◎标  题 一落千丈:波音大观察
◎译  名 坠:波音大观察(台)
◎片  名 Downfall: The Case Against Boeing
◎年  代 2022
◎产  地 美国
◎类  别 记载片
◎语  言 英语
◎上映日期 2022-02-18(美国)
◎IMDb评分 7.4/10 (11552人评价)
◎IMDb链接 https://www.imdb.com/title/tt11893274/
◎豆瓣评分 8.2/10 (9486人评价)
◎豆瓣链接 https://movie.douban.com/subject/35694785/
◎片  长 89分钟
◎导  演 罗瑞·肯尼迪 Rory Kennedy
◎编  剧 马克·贝利 Mark Bailey
       凯文·麦卡莱斯特 Keven McAlester
◎演  员 莱斯特·赫特 Lester Holt
       玛丽亚·巴尔蒂罗莫 Maria Bartiromo
       Peter Jennings Peter Jennings
       切斯利·舒伦伯格 Chesley Sullenberger
       理查德·恩格尔 Richard Engel
       Peter A. DeFazio Peter A. DeFazio
       唐纳德·特朗普 Donald Trump
       赵小兰 Elaine L. Chao
◎简  介
  在《一落千丈:波音大观察》这部使人毛骨悚然的记载片中,曾获奥斯卡提名的电影人罗瑞·肯尼迪揭穿了企业对题目标漠视和贪心若何致使两架波音 MAX 737 飞机在短短五个月内相继失事。在航空专家、消息记者、前波音职员、美国国会和受害者家属的主导下,这部电影揭开了一家已经备受推重的公司背后一味削减本钱和掩人线人的文化。《一落千丈:波音大观察》痛斥来自华尔街的废弛影响,并指出美国企业所秉持的理念的危险之处 — 偶然这甚至事关人命。本片由罗瑞·肯尼迪执导和建造,马克·贝利建造和结合编剧,布莱恩·格拉泽和朗·霍华德监制。
  1. Video
  2. ID                                       : 1
  3. Format                                   : HEVC
  4. Format/Info                              : High Efficiency Video Coding
  5. Format profile                           : Main [email protected]@Main
  6. HDR format                               : Dolby Vision, Version 1.0, dvhe.05.06, BL+RPU
  7. Codec ID                                 : dvhe
  8. Codec ID/Info                            : High Efficiency Video Coding with Dolby Vision
  9. Duration                                 : 1 h 30 min
  10. Bit rate                                 : 18.2 Mb/s
  11. Width                                    : 3 840 pixels
  12. Height                                   : 2 160 pixels
  13. Display aspect ratio                     : 16:9
  14. Frame rate mode                          : Constant
  15. Frame rate                               : 23.976 (24000/1001) FPS
  16. Color space                              : YUV
  17. Chroma subsampling                       : 4:2:0
  18. Bit depth                                : 10 bits
  19. Bits/(Pixel*Frame)                       : 0.092
  20. Stream size                              : 11.5 GiB (97%)
  21. Default                                  : Yes
  22. Alternate group                          : 1
  23. Encoded date                             : UTC 2023-01-07 20:37:00
  24. Tagged date                              : UTC 2023-01-07 20:39:44
  25. Color range                              : Full
  26. Codec configuration box                  : hvcC+dvcC
  27. Audio
  28. ID                                       : 2
  29. Format                                   : E-AC-3
  30. Format/Info                              : Enhanced AC-3
  31. Commercial name                          : Dolby Digital Plus
  32. Codec ID                                 : ec-3
  33. Duration                                 : 1 h 30 min
  34. Bit rate mode                            : Constant
  35. Bit rate                                 : 640 kb/s
  36. Maximum bit rate                         : 676 kb/s
  37. Channel(s)                               : 6 channels
  38. Channel layout                           : L R C LFE Ls Rs
  39. Sampling rate                            : 48.0 kHz
  40. Frame rate                               : 31.250 FPS (1536 SPF)
  41. Compression mode                         : Lossy
  42. Stream size                              : 413 MiB (3%)
  43. Title                                    : English
  44. Language                                 : English
  45. Service kind                             : Complete Main
  46. Default                                  : Yes
  47. Alternate group                          : 1
  48. Tagged date                              : UTC 2023-01-07 20:39:44
  49. Text #1
  50. ID                                       : 3
  51. Format                                   : Timed Text
  52. Codec ID                                 : tx3g
  53. Duration                                 : 1 h 26 min
  54. Bit rate mode                            : Variable
  55. Bit rate                                 : 99 b/s
  56. Frame rate                               : 0.497 FPS
  57. Stream size                              : 62.7 KiB (0%)
  58. Title                                    : English
  59. Language                                 : English
  60. Forced                                   : No
  61. Encoded date                             : UTC 2023-01-07 20:39:35
  62. Tagged date                              : UTC 2023-01-07 20:39:44
  63. Text #2
  64. ID                                       : 4
  65. Format                                   : Timed Text
  66. Codec ID                                 : tx3g
  67. Duration                                 : 1 h 26 min
  68. Bit rate mode                            : Variable
  69. Bit rate                                 : 104 b/s
  70. Frame rate                               : 0.511 FPS
  71. Stream size                              : 65.9 KiB (0%)
  72. Title                                    : English
  73. Language                                 : English
  74. Forced                                   : No
  75. Encoded date                             : UTC 2023-01-07 20:39:36
  76. Tagged date                              : UTC 2023-01-07 20:39:44
  77. Text #3
  78. ID                                       : 5
  79. Format                                   : Timed Text
  80. Codec ID                                 : tx3g
  81. Duration                                 : 51 min 31 s
  82. Bit rate mode                            : Variable
  83. Bit rate                                 : 4 b/s
  84. Frame rate                               : 0.016 FPS
  85. Stream size                              : 1.67 KiB (0%)
  86. Title                                    : English
  87. Language                                 : English
  88. Forced                                   : No
  89. Encoded date                             : UTC 2023-01-07 20:39:37
  90. Tagged date                              : UTC 2023-01-07 20:39:44
  91. Text #4
  92. ID                                       : 6
  93. Format                                   : Timed Text
  94. Codec ID                                 : tx3g
  95. Duration                                 : 1 h 27 min
  96. Bit rate mode                            : Variable
  97. Bit rate                                 : 147 b/s
  98. Frame rate                               : 0.506 FPS
  99. Stream size                              : 94.1 KiB (0%)
  100. Title                                    : Arabic
  101. Language                                 : Arabic
  102. Forced                                   : No
  103. Encoded date                             : UTC 2023-01-07 20:39:38
  104. Tagged date                              : UTC 2023-01-07 20:39:44
  105. Text #5
  106. ID                                       : 7
  107. Format                                   : Timed Text
  108. Codec ID                                 : tx3g
  109. Duration                                 : 1 h 28 min
  110. Bit rate mode                            : Variable
  111. Bit rate                                 : 90 b/s
  112. Frame rate                               : 0.504 FPS
  113. Stream size                              : 58.8 KiB (0%)
  114. Title                                    : Chinese-Simplified
  115. Language                                 : Chinese (Simplied)
  116. Forced                                   : No
  117. Encoded date                             : UTC 2023-01-07 20:39:38
  118. Tagged date                              : UTC 2023-01-07 20:39:44
  119. Text #6
  120. ID                                       : 8
  121. Format                                   : Timed Text
  122. Codec ID                                 : tx3g
  123. Duration                                 : 1 h 28 min
  124. Bit rate mode                            : Variable
  125. Bit rate                                 : 85 b/s
  126. Frame rate                               : 0.510 FPS
  127. Stream size                              : 55.4 KiB (0%)
  128. Title                                    : Chinese-Traditional
  129. Language                                 : Chinese (Traditional)
  130. Forced                                   : No
  131. Encoded date                             : UTC 2023-01-07 20:39:39
  132. Tagged date                              : UTC 2023-01-07 20:39:44
  133. Text #7
  134. ID                                       : 9
  135. Format                                   : Timed Text
  136. Codec ID                                 : tx3g
  137. Duration                                 : 1 h 28 min
  138. Bit rate mode                            : Variable
  139. Bit rate                                 : 81 b/s
  140. Frame rate                               : 0.480 FPS
  141. Stream size                              : 52.6 KiB (0%)
  142. Title                                    : Croatian
  143. Language                                 : Croatian
  144. Forced                                   : No
  145. Encoded date                             : UTC 2023-01-07 20:39:39
  146. Tagged date                              : UTC 2023-01-07 20:39:44
  147. Text #8
  148. ID                                       : 10
  149. Format                                   : Timed Text
  150. Codec ID                                 : tx3g
  151. Duration                                 : 1 h 28 min
  152. Bit rate mode                            : Variable
  153. Bit rate                                 : 96 b/s
  154. Frame rate                               : 0.497 FPS
  155. Stream size                              : 62.6 KiB (0%)
  156. Title                                    : Czech
  157. Language                                 : Czech
  158. Forced                                   : No
  159. Encoded date                             : UTC 2023-01-07 20:39:40
  160. Tagged date                              : UTC 2023-01-07 20:39:44
  161. Text #9
  162. ID                                       : 11
  163. Format                                   : Timed Text
  164. Codec ID                                 : tx3g
  165. Duration                                 : 1 h 28 min
  166. Bit rate mode                            : Variable
  167. Bit rate                                 : 87 b/s
  168. Frame rate                               : 0.440 FPS
  169. Stream size                              : 56.6 KiB (0%)
  170. Title                                    : Danish
  171. Language                                 : Danish
  172. Forced                                   : No
  173. Encoded date                             : UTC 2023-01-07 20:39:41
  174. Tagged date                              : UTC 2023-01-07 20:39:44
  175. Text #10
  176. ID                                       : 12
  177. Format                                   : Timed Text
  178. Codec ID                                 : tx3g
  179. Duration                                 : 1 h 28 min
  180. Bit rate mode                            : Variable
  181. Bit rate                                 : 90 b/s
  182. Frame rate                               : 0.443 FPS
  183. Stream size                              : 58.8 KiB (0%)
  184. Title                                    : Dutch
  185. Language                                 : Dutch
  186. Forced                                   : No
  187. Encoded date                             : UTC 2023-01-07 20:39:41
  188. Tagged date                              : UTC 2023-01-07 20:39:44
  189. Text #11
  190. ID                                       : 13
  191. Format                                   : Timed Text
  192. Codec ID                                 : tx3g
  193. Duration                                 : 1 h 28 min
  194. Bit rate mode                            : Variable
  195. Bit rate                                 : 89 b/s
  196. Frame rate                               : 0.417 FPS
  197. Stream size                              : 58.0 KiB (0%)
  198. Title                                    : Finnish
  199. Language                                 : Finnish
  200. Forced                                   : No
  201. Encoded date                             : UTC 2023-01-07 20:39:42
  202. Tagged date                              : UTC 2023-01-07 20:39:44
  203. Text #12
  204. ID                                       : 14
  205. Format                                   : Timed Text
  206. Codec ID                                 : tx3g
  207. Duration                                 : 1 h 28 min
  208. Bit rate mode                            : Variable
  209. Bit rate                                 : 93 b/s
  210. Frame rate                               : 0.486 FPS
  211. Stream size                              : 60.7 KiB (0%)
  212. Title                                    : French
  213. Language                                 : French
  214. Forced                                   : No
  215. Encoded date                             : UTC 2023-01-07 20:39:42
  216. Tagged date                              : UTC 2023-01-07 20:39:44
  217. Text #13
  218. ID                                       : 15
  219. Format                                   : Timed Text
  220. Codec ID                                 : tx3g
  221. Duration                                 : 1 h 28 min
  222. Bit rate mode                            : Variable
  223. Bit rate                                 : 98 b/s
  224. Frame rate                               : 0.520 FPS
  225. Stream size                              : 63.8 KiB (0%)
  226. Title                                    : German
  227. Language                                 : German
  228. Forced                                   : No
  229. Encoded date                             : UTC 2023-01-07 20:39:42
  230. Tagged date                              : UTC 2023-01-07 20:39:44
  231. Text #14
  232. ID                                       : 16
  233. Format                                   : Timed Text
  234. Codec ID                                 : tx3g
  235. Duration                                 : 1 h 27 min
  236. Bit rate mode                            : Variable
  237. Bit rate                                 : 152 b/s
  238. Frame rate                               : 0.495 FPS
  239. Stream size                              : 97.5 KiB (0%)
  240. Title                                    : Greek
  241. Language                                 : Greek
  242. Forced                                   : No
  243. Encoded date                             : UTC 2023-01-07 20:39:42
  244. Tagged date                              : UTC 2023-01-07 20:39:44
  245. Text #15
  246. ID                                       : 17
  247. Format                                   : Timed Text
  248. Codec ID                                 : tx3g
  249. Duration                                 : 1 h 28 min
  250. Bit rate mode                            : Variable
  251. Bit rate                                 : 134 b/s
  252. Frame rate                               : 0.498 FPS
  253. Stream size                              : 87.0 KiB (0%)
  254. Title                                    : Hebrew
  255. Language                                 : Hebrew
  256. Forced                                   : No
  257. Encoded date                             : UTC 2023-01-07 20:39:43
  258. Tagged date                              : UTC 2023-01-07 20:39:44
  259. Text #16
  260. ID                                       : 18
  261. Format                                   : Timed Text
  262. Codec ID                                 : tx3g
  263. Duration                                 : 1 h 28 min
  264. Bit rate mode                            : Variable
  265. Bit rate                                 : 99 b/s
  266. Frame rate                               : 0.497 FPS
  267. Stream size                              : 64.4 KiB (0%)
  268. Title                                    : Hungarian
  269. Language                                 : Hungarian
  270. Forced                                   : No
  271. Encoded date                             : UTC 2023-01-07 20:39:43
  272. Tagged date                              : UTC 2023-01-07 20:39:44
  273. Text #17
  274. ID                                       : 19
  275. Format                                   : Timed Text
  276. Codec ID                                 : tx3g
  277. Duration                                 : 1 h 28 min
  278. Bit rate mode                            : Variable
  279. Bit rate                                 : 90 b/s
  280. Frame rate                               : 0.501 FPS
  281. Stream size                              : 58.8 KiB (0%)
  282. Title                                    : Indonesian
  283. Language                                 : Indonesian
  284. Forced                                   : No
  285. Encoded date                             : UTC 2023-01-07 20:39:43
  286. Tagged date                              : UTC 2023-01-07 20:39:44
  287. Text #18
  288. ID                                       : 20
  289. Format                                   : Timed Text
  290. Codec ID                                 : tx3g
  291. Duration                                 : 1 h 28 min
  292. Bit rate mode                            : Variable
  293. Bit rate                                 : 98 b/s
  294. Frame rate                               : 0.495 FPS
  295. Stream size                              : 63.9 KiB (0%)
  296. Title                                    : Italian
  297. Language                                 : Italian
  298. Forced                                   : No
  299. Encoded date                             : UTC 2023-01-07 20:39:43
  300. Tagged date                              : UTC 2023-01-07 20:39:44
  301. Text #19
  302. ID                                       : 21
  303. Format                                   : Timed Text
  304. Codec ID                                 : tx3g
  305. Duration                                 : 1 h 28 min
  306. Bit rate mode                            : Variable
  307. Bit rate                                 : 117 b/s
  308. Frame rate                               : 0.476 FPS
  309. Stream size                              : 76.3 KiB (0%)
  310. Title                                    : Japanese
  311. Language                                 : Japanese
  312. Forced                                   : No
  313. Encoded date                             : UTC 2023-01-07 20:39:43
  314. Tagged date                              : UTC 2023-01-07 20:39:44
  315. Text #20
  316. ID                                       : 22
  317. Format                                   : Timed Text
  318. Codec ID                                 : tx3g
  319. Duration                                 : 1 h 28 min
  320. Bit rate mode                            : Variable
  321. Bit rate                                 : 117 b/s
  322. Frame rate                               : 0.532 FPS
  323. Stream size                              : 76.1 KiB (0%)
  324. Title                                    : Korean
  325. Language                                 : Korean
  326. Forced                                   : No
  327. Encoded date                             : UTC 2023-01-07 20:39:43
  328. Tagged date                              : UTC 2023-01-07 20:39:44
  329. Text #21
  330. ID                                       : 23
  331. Format                                   : Timed Text
  332. Codec ID                                 : tx3g
  333. Duration                                 : 1 h 28 min
  334. Bit rate mode                            : Variable
  335. Bit rate                                 : 94 b/s
  336. Frame rate                               : 0.503 FPS
  337. Stream size                              : 61.1 KiB (0%)
  338. Title                                    : Malay
  339. Language                                 : Malay
  340. Forced                                   : No
  341. Encoded date                             : UTC 2023-01-07 20:39:43
  342. Tagged date                              : UTC 2023-01-07 20:39:44
  343. Text #22
  344. ID                                       : 24
  345. Format                                   : Timed Text
  346. Codec ID                                 : tx3g
  347. Duration                                 : 1 h 28 min
  348. Bit rate mode                            : Variable
  349. Bit rate                                 : 83 b/s
  350. Frame rate                               : 0.396 FPS
  351. Stream size                              : 54.1 KiB (0%)
  352. Title                                    : Norwegian
  353. Language                                 : Norwegian Bokmal
  354. Forced                                   : No
  355. Encoded date                             : UTC 2023-01-07 20:39:43
  356. Tagged date                              : UTC 2023-01-07 20:39:44
  357. Text #23
  358. ID                                       : 25
  359. Format                                   : Timed Text
  360. Codec ID                                 : tx3g
  361. Duration                                 : 1 h 28 min
  362. Bit rate mode                            : Variable
  363. Bit rate                                 : 75 b/s
  364. Frame rate                               : 0.489 FPS
  365. Stream size                              : 49.0 KiB (0%)
  366. Title                                    : Polish
  367. Language                                 : Polish
  368. Forced                                   : No
  369. Encoded date                             : UTC 2023-01-07 20:39:43
  370. Tagged date                              : UTC 2023-01-07 20:39:44
  371. Text #24
  372. ID                                       : 26
  373. Format                                   : Timed Text
  374. Codec ID                                 : tx3g
  375. Duration                                 : 1 h 28 min
  376. Bit rate mode                            : Variable
  377. Bit rate                                 : 97 b/s
  378. Frame rate                               : 0.493 FPS
  379. Stream size                              : 63.0 KiB (0%)
  380. Title                                    : Portuguese
  381. Language                                 : Portuguese
  382. Forced                                   : No
  383. Encoded date                             : UTC 2023-01-07 20:39:43
  384. Tagged date                              : UTC 2023-01-07 20:39:44
  385. Text #25
  386. ID                                       : 27
  387. Format                                   : Timed Text
  388. Codec ID                                 : tx3g
  389. Duration                                 : 1 h 28 min
  390. Bit rate mode                            : Variable
  391. Bit rate                                 : 90 b/s
  392. Frame rate                               : 0.495 FPS
  393. Stream size                              : 58.3 KiB (0%)
  394. Title                                    : Portuguese-BR
  395. Language                                 : Portuguese (BR)
  396. Forced                                   : No
  397. Encoded date                             : UTC 2023-01-07 20:39:43
  398. Tagged date                              : UTC 2023-01-07 20:39:44
  399. Text #26
  400. ID                                       : 28
  401. Format                                   : Timed Text
  402. Codec ID                                 : tx3g
  403. Duration                                 : 1 h 28 min
  404. Bit rate mode                            : Variable
  405. Bit rate                                 : 102 b/s
  406. Frame rate                               : 0.483 FPS
  407. Stream size                              : 66.0 KiB (0%)
  408. Title                                    : Romanian
  409. Language                                 : Romanian
  410. Forced                                   : No
  411. Encoded date                             : UTC 2023-01-07 20:39:44
  412. Tagged date                              : UTC 2023-01-07 20:39:44
  413. Text #27
  414. ID                                       : 29
  415. Format                                   : Timed Text
  416. Codec ID                                 : tx3g
  417. Duration                                 : 1 h 28 min
  418. Bit rate mode                            : Variable
  419. Bit rate                                 : 160 b/s
  420. Frame rate                               : 0.479 FPS
  421. Stream size                              : 104 KiB (0%)
  422. Title                                    : Russian
  423. Language                                 : Russian
  424. Forced                                   : No
  425. Encoded date                             : UTC 2023-01-07 20:39:44
  426. Tagged date                              : UTC 2023-01-07 20:39:44
  427. Text #28
  428. ID                                       : 30
  429. Format                                   : Timed Text
  430. Codec ID                                 : tx3g
  431. Duration                                 : 1 h 28 min
  432. Bit rate mode                            : Variable
  433. Bit rate                                 : 91 b/s
  434. Frame rate                               : 0.463 FPS
  435. Stream size                              : 59.2 KiB (0%)
  436. Title                                    : Spanish
  437. Language                                 : Spanish (150)
  438. Forced                                   : No
  439. Encoded date                             : UTC 2023-01-07 20:39:44
  440. Tagged date                              : UTC 2023-01-07 20:39:44
  441. Text #29
  442. ID                                       : 31
  443. Format                                   : Timed Text
  444. Codec ID                                 : tx3g
  445. Duration                                 : 1 h 28 min
  446. Bit rate mode                            : Variable
  447. Bit rate                                 : 89 b/s
  448. Frame rate                               : 0.499 FPS
  449. Stream size                              : 57.6 KiB (0%)
  450. Title                                    : Spanish-EU
  451. Language                                 : Spanish
  452. Forced                                   : No
  453. Encoded date                             : UTC 2023-01-07 20:39:44
  454. Tagged date                              : UTC 2023-01-07 20:39:44
  455. Text #30
  456. ID                                       : 32
  457. Format                                   : Timed Text
  458. Codec ID                                 : tx3g
  459. Duration                                 : 1 h 28 min
  460. Bit rate mode                            : Variable
  461. Bit rate                                 : 89 b/s
  462. Frame rate                               : 0.449 FPS
  463. Stream size                              : 57.9 KiB (0%)
  464. Title                                    : Swedish
  465. Language                                 : Swedish
  466. Forced                                   : No
  467. Encoded date                             : UTC 2023-01-07 20:39:44
  468. Tagged date                              : UTC 2023-01-07 20:39:44
  469. Text #31
  470. ID                                       : 33
  471. Format                                   : Timed Text
  472. Codec ID                                 : tx3g
  473. Duration                                 : 1 h 28 min
  474. Bit rate mode                            : Variable
  475. Bit rate                                 : 233 b/s
  476. Frame rate                               : 0.499 FPS
  477. Stream size                              : 151 KiB (0%)
  478. Title                                    : Thai
  479. Language                                 : Thai
  480. Forced                                   : No
  481. Encoded date                             : UTC 2023-01-07 20:39:44
  482. Tagged date                              : UTC 2023-01-07 20:39:44
  483. Text #32
  484. ID                                       : 34
  485. Format                                   : Timed Text
  486. Codec ID                                 : tx3g
  487. Duration                                 : 1 h 28 min
  488. Bit rate mode                            : Variable
  489. Bit rate                                 : 93 b/s
  490. Frame rate                               : 0.488 FPS
  491. Stream size                              : 60.7 KiB (0%)
  492. Title                                    : Turkish
  493. Language                                 : Turkish
  494. Forced                                   : No
  495. Encoded date                             : UTC 2023-01-07 20:39:44
  496. Tagged date                              : UTC 2023-01-07 20:39:44
  497. Text #33
  498. ID                                       : 35
  499. Format                                   : Timed Text
  500. Codec ID                                 : tx3g
  501. Duration                                 : 1 h 28 min
  502. Bit rate mode                            : Variable
  503. Bit rate                                 : 181 b/s
  504. Frame rate                               : 0.478 FPS
  505. Stream size                              : 118 KiB (0%)
  506. Title                                    : Ukrainian
  507. Language                                 : Ukrainian
  508. Forced                                   : No
  509. Encoded date                             : UTC 2023-01-07 20:39:44
  510. Tagged date                              : UTC 2023-01-07 20:39:44
  511. Text #34
  512. ID                                       : 36
  513. Format                                   : Timed Text
  514. Codec ID                                 : tx3g
  515. Duration                                 : 1 h 28 min
  516. Bit rate mode                            : Variable
  517. Bit rate                                 : 127 b/s
  518. Frame rate                               : 0.511 FPS
  519. Stream size                              : 82.5 KiB (0%)
  520. Title                                    : Vietnamese
  521. Language                                 : Vietnamese
  522. Forced                                   : No
  523. Encoded date                             : UTC 2023-01-07 20:39:44
  524. Tagged date                              : UTC 2023-01-07 20:39:44
复制代码











回复

使用道具 举报

蓝光币
281
发表于 2023-1-9 10:09:06 | 显示全部楼层
谢谢分享好资源
回复 支持 反对

使用道具 举报

蓝光币
228
发表于 2023-1-10 08:31:18 | 显示全部楼层
感谢楼主发贴 。
回复 支持 反对

使用道具 举报

懒得打字嘛,点击右侧快捷回复 【右侧内容,后台自定义】
您需要登录后才可以回帖 登录 | 立即加入

本版积分规则

Archiver|小黑屋| 蓝光电影网 |网站地图

Copyright © 2021 Comsenz Inc. Powered by 蓝光电影网

蓝光电影网

本站内容由用户自主分享和转载自互联网,转载目的在于传递更多信息,并不代表本网赞同其观点和对其真实性负责。

如有侵权、违反国家法律政策行为,请联系我们,我们会第一时间及时清除和处理!

举报反馈邮箱:[email protected]

快速回复 返回顶部 返回列表