找回密码

蓝光电影网

查看: 59|回复: 0

[战争] 跨过鸭绿江[国语][简体中字].Crossing.the.Yalu.River.2021.1080p.WEB-DL.H264.AAC-PTerWEB 2.47GB

[复制链接]
蓝光币
1082
发表于 2023-1-9 15:06:12 | 显示全部楼层 |阅读模式



◎译  名 Crossing the Yalu River
◎片  名 跨过鸭绿江
◎年  代 2021
◎产  地 中国大陆
◎类  别 历史 / 战争
◎语  言 汉语普通话
◎上映日期 2021-12-17(中国大陆)
◎IMDb评分  3.3/10 from 7 users
◎IMDb链接  https://www.imdb.com/title/tt16757530/
◎豆瓣链接 https://movie.douban.com/subject/35636558/
◎片  长 154分钟
◎导  演 董亚春 / Yachun Dong
◎演  员 丁勇岱 / Yongdai Ding (饰 彭德怀)
      唐国强 / Guoqiang Tang (饰 毛泽东)
      孙维民 / Weimin Sun (饰 周恩来)
      王志飞 / Zhifei Wang (饰 聂荣臻)
      刘之冰 / Zhibing Liu (饰 邓华)
      姚刚 / Gang Yao (饰 洪学智)
      王挺 / Ting Wang (饰 韩先楚)
      王同辉 / Tonghui Wang (饰 解方)
      刘涛 / Tao Liu (饰 杜平)
      刘旭 / Xu Liu (饰 赵如迪)
      赵波 / Bo Zhao (饰 梁兴初)
      王九胜 / Jiusheng Wang (饰 杨凤安)
      张铎 / Duo Zhang (饰 范天恩)
      左佰学 / Baixue Zuo (饰 曾泽生)
      李健 / Jian Li (饰 傅崇碧)
      娄宇健 / Yujian Lou (饰 李永明)
      黄垲翔 / Kaixiang Huang (饰 杨根思)
      韩栋 / Dong Han (饰 郑锐)
      张峰 / Feng Zhang  (饰 黄继光)
      张笑君 / Xiaojun Zhang (饰 蔡长元)
      侯俊光 / Junguang Hou (饰 邱少云)
      李印 / Yin Li (饰 张团长)
      王伍福 / Wufu Wang (饰 朱德)
      古尊·伊戈尔 / Igor Guzun  (饰 斯大林)
      马晓伟 / Xiaowei Ma (饰 蒋介石)
      吴健 / Jian Wu (饰 毛岸英)
      马诗红 / Shihong Ma (饰 林彪)
      徐砡 / Yu Xu (饰 李纳)
      史姑娘·丹尼·富兰克林 / Smith Danny Franklin (饰 杜鲁门)
      马意骏 / Cavolo Mario Eugene (饰 麦克阿瑟)
      奥尔蒂斯·里奥·卡里佐萨·拉斐尔 / Ortiz Río Carrizosa Rafael (饰 李奇微)
      史蒂芬·伯格丁 / Steve Boergadine (饰 马歇尔)
◎编  剧 余飞 / Fei Yu
      辛志海 / Zhihai Xin
      韩冬 / Dong Han
      郭名誉 / Guangrong Guo
      王乙涵 / Yihan Wang
◎制  片  人 薛继军 / Jijun Xue
      李向东 / Xiangdong Li
◎音  乐 邹野 / Ye Zou

◎简  介 

  影片以中国群众自愿军司令员兼政治委员彭德怀的视角报告,周全展现了从战前国际情势的快速演变到板门店寝兵协议的签订,触及中国群众自愿军对战以美国为首的“结合国军”的全部抗美援朝战争进程。影片不但具有工具两线和五次战争的全时空格式,还显现了突袭战、防御战、活动战、阵地战和坑道战等多场分歧特质的剧烈战役排场,在报告国际格式突变时中、苏、美三国带领人作战批示思惟博弈的同时,影片展现了毛泽东等无产阶级反动家的计谋思维,也展现了以彭德怀为统帅的批示员们的疆场盘算,以及全部自愿军战士用生命保卫战争允义、保家卫国的爱国主义精神,全方位显现出我们为赢得这场艰辛卓绝、震动民气的巨大战争的最初成功所做的牺牲和尽力。

◎获奖情况 

  第16届中国长春电影节 (2021)
  金鹿奖 最好音乐 邹野

  1. Video
  2. ID : 1
  3. Format : AVC
  4. Format/Info : Advanced Video Codec
  5. Format profile : [email protected]
  6. Format settings : CABAC / 3 Ref Frames
  7. Format settings, CABAC : Yes
  8. Format settings, Reference frames : 3 frames
  9. Codec ID : avc1
  10. Codec ID/Info : Advanced Video Coding
  11. Duration : 2 h 34 min
  12. Bit rate : 2 097 kb/s
  13. Width : 1 920 pixels
  14. Height : 1 040 pixels
  15. Display aspect ratio : 1.85:1
  16. Frame rate mode : Constant
  17. Frame rate : 24.000 FPS
  18. Color space : YUV
  19. Chroma subsampling : 4:2:0
  20. Bit depth : 8 bits
  21. Scan type : Progressive
  22. Bits/(Pixel*Frame) : 0.044
  23. Stream size : 2.26 GiB (91%)
  24. Color range : Limited
  25. Color primaries : BT.709
  26. Transfer characteristics : BT.709
  27. Matrix coefficients : BT.709
  28. Codec configuration box : avcC

  29. Audio
  30. ID : 2
  31. Format : AAC LC
  32. Format/Info : Advanced Audio Codec Low Complexity
  33. Codec ID : mp4a-40-2
  34. Duration : 2 h 34 min
  35. Bit rate mode : Constant
  36. Bit rate : 192 kb/s
  37. Channel(s) : 2 channels
  38. Channel layout : L R
  39. Sampling rate : 44.1 kHz
  40. Frame rate : 43.066 FPS (1024 SPF)
  41. Compression mode : Lossy
  42. Stream size : 209 MiB (8%)
  43. Default : Yes
  44. Alternate group : 1
复制代码













回复

使用道具 举报

懒得打字嘛,点击右侧快捷回复 【右侧内容,后台自定义】
您需要登录后才可以回帖 登录 | 立即加入

本版积分规则

Archiver|小黑屋| 蓝光电影网 |网站地图

Copyright © 2021 Comsenz Inc. Powered by 蓝光电影网

蓝光电影网

本站内容由用户自主分享和转载自互联网,转载目的在于传递更多信息,并不代表本网赞同其观点和对其真实性负责。

如有侵权、违反国家法律政策行为,请联系我们,我们会第一时间及时清除和处理!

举报反馈邮箱:[email protected]

快速回复 返回顶部 返回列表