找回密码

蓝光电影网

查看: 11|回复: 0

[恐怖] 夜半一点钟[国语音轨].01.00.A.M.1995.CHINESE.ENSUBBED.1080p.WEBRip.AAC2.0.x264-NOGRP 2.83GB

[复制链接]
蓝光币
1084
发表于 2023-1-10 16:11:53 | 显示全部楼层 |阅读模式


◎标  题 半夜一点钟
◎译  名 三更谁CALL我 / 01:00 A.M.
◎片  名 半夜一點鐘
◎年  代 1995
◎产  地 中国香港
◎类  别 可骇
◎语  言 粤语
◎上映日期 1995-06-02(中国香港)
◎IMDb评分 5.4/10 (82人评价)
◎IMDb链接 https://www.imdb.com/title/tt0115017/
◎豆瓣评分 6.2/10 (2051人评价)
◎豆瓣链接 https://movie.douban.com/subject/1388234/
◎片  长 86 分钟
◎导  演 叶伟信 Wilson Yip
◎编  剧 郭伟钟 Wai Chung Kwok
       苏文星 Man Sing So
◎演  员 叶玉卿 Veronica Yip
       袁咏仪 Anita Yuen
       陈小春 Jordan Chan
       徐锦江 Elvis Tsui
       卢雄 Paul Lo
       梁思敏 Ivy Leung
       钱永强 Andy Chin
       黄国雄 Samuel Wong
       苏文星 Man Sing So
◎简  介
  故事一:歌星Sunny(黄耀明 饰)在医院昏迷半年了,但他的身材状态杰出,昏迷缘由不明。护士(叶玉卿 饰)负责在清晨值班照顾他。天天清晨1点,护士都能看到Sunny与一位女孩在一路,本来Sunny被这个死去的歌迷缠住了……                                    
                                故事二:芳(袁咏仪 饰)与几名同学到黉舍四周探险,听说那边常有个大辫后代鬼出现。芳的同学原本是想扮鬼吓她,竟没想到她们真的遇上了这名大辫后代鬼……                                    
                                故事三:众多市民都在一本报刊中,看到了一位多天前被撞死的妻子婆的身影。这是一张快照,负责这些照片的是交通警察阿辉(陈小春 饰)与阿明(徐锦江 饰),使民气寒的是接下来的几个月,他们都被妻子婆的鬼魂缠绕……
  1. Video
  2. ID                                       : 1
  3. Format                                   : AVC
  4. Format/Info                              : Advanced Video Codec
  5. Format profile                           : [email protected]
  6. Format settings                          : CABAC / 4 Ref Frames
  7. Format settings, CABAC                   : Yes
  8. Format settings, Reference frames        : 4 frames
  9. Codec ID                                 : V_MPEG4/ISO/AVC
  10. Duration                                 : 1 h 23 min
  11. Bit rate mode                            : Variable
  12. Bit rate                                 : 4 808 kb/s
  13. Width                                    : 1 920 pixels
  14. Height                                   : 1 080 pixels
  15. Display aspect ratio                     : 16:9
  16. Frame rate mode                          : Constant
  17. Frame rate                               : 25.000 FPS
  18. Standard                                 : Component
  19. Color space                              : YUV
  20. Chroma subsampling                       : 4:2:0
  21. Bit depth                                : 8 bits
  22. Scan type                                : Progressive
  23. Bits/(Pixel*Frame)                       : 0.093
  24. Stream size                              : 2.77 GiB (98%)
  25. Language                                 : Chinese
  26. Default                                  : Yes
  27. Forced                                   : No
  28. Color range                              : Limited
  29. Audio
  30. ID                                       : 2
  31. Format                                   : AAC LC
  32. Format/Info                              : Advanced Audio Codec Low Complexity
  33. Codec ID                                 : A_AAC-2
  34. Duration                                 : 1 h 23 min
  35. Bit rate                                 : 93.4 kb/s
  36. Channel(s)                               : 2 channels
  37. Channel layout                           : L R
  38. Sampling rate                            : 48.0 kHz
  39. Frame rate                               : 46.875 FPS (1024 SPF)
  40. Compression mode                         : Lossy
  41. Stream size                              : 55.4 MiB (2%)
  42. Title                                    : Cantonese
  43. Language                                 : Chinese
  44. Default                                  : No
  45. Forced                                   : No
复制代码











回复

使用道具 举报

懒得打字嘛,点击右侧快捷回复 【右侧内容,后台自定义】
您需要登录后才可以回帖 登录 | 立即加入

本版积分规则

Archiver|小黑屋| 蓝光电影网 |网站地图

Copyright © 2021 Comsenz Inc. Powered by 蓝光电影网

蓝光电影网

本站内容由用户自主分享和转载自互联网,转载目的在于传递更多信息,并不代表本网赞同其观点和对其真实性负责。

如有侵权、违反国家法律政策行为,请联系我们,我们会第一时间及时清除和处理!

举报反馈邮箱:[email protected]

快速回复 返回顶部 返回列表