找回密码

蓝光电影网

查看: 17|回复: 0

[其他] 分而治之:罗杰艾尔斯的故事.Divide.and.Conquer.The.Story.of.Roger.Ailes.2018.1080p.WEB.h264-OPUS 6.73GB

[复制链接]
蓝光币
1080
发表于 2023-1-10 16:11:57 | 显示全部楼层 |阅读模式


◎译  名 分而治之:罗杰艾尔斯的故事
◎片  名 Divide and Conquer: The Story of Roger Ailes
◎年  代 2018
◎产  地 美国
◎类  别 记载片
◎语  言 英语
◎上映日期 2018-09-09(多伦多电影节)
◎IMDb链接 https://www.imdb.com/title/tt6471628/
◎豆瓣链接 https://movie.douban.com/subject/30327352/
◎片  长 107分钟
◎导  演 亚历克西斯·布鲁姆 Alexis Bloom
◎演  员 威尔·贝茨 Will Bates
◎简  介
  A documentary that explores the rise and fall of the late Roger Ailes from his early media influence on the Nixon presidency to his controversial leadership at Fox News.
  1. Video
  2. ID                                       : 1
  3. Format                                   : AVC
  4. Format/Info                              : Advanced Video Codec
  5. Format profile                           : [email protected]
  6. Format settings                          : CABAC / 4 Ref Frames
  7. Format settings, CABAC                   : Yes
  8. Format settings, Reference frames        : 4 frames
  9. Codec ID                                 : V_MPEG4/ISO/AVC
  10. Duration                                 : 1 h 47 min
  11. Bit rate mode                            : Constant
  12. Bit rate                                 : 8 322 kb/s
  13. Nominal bit rate                         : 10 000 kb/s
  14. Width                                    : 1 920 pixels
  15. Height                                   : 1 080 pixels
  16. Display aspect ratio                     : 16:9
  17. Frame rate mode                          : Constant
  18. Frame rate                               : 23.976 (24000/1001) FPS
  19. Color space                              : YUV
  20. Chroma subsampling                       : 4:2:0
  21. Bit depth                                : 8 bits
  22. Scan type                                : Progressive
  23. Bits/(Pixel*Frame)                       : 0.167
  24. Stream size                              : 6.25 GiB (93%)
  25. Language                                 : English
  26. Default                                  : Yes
  27. Forced                                   : No
  28. Color range                              : Limited
  29. Color primaries                          : BT.709
  30. Transfer characteristics                 : BT.709
  31. Matrix coefficients                      : BT.709
  32. Audio
  33. ID                                       : 2
  34. Format                                   : E-AC-3
  35. Format/Info                              : Enhanced AC-3
  36. Commercial name                          : Dolby Digital Plus
  37. Codec ID                                 : A_EAC3
  38. Duration                                 : 1 h 47 min
  39. Bit rate mode                            : Constant
  40. Bit rate                                 : 640 kb/s
  41. Channel(s)                               : 6 channels
  42. Channel layout                           : L R C LFE Ls Rs
  43. Sampling rate                            : 48.0 kHz
  44. Frame rate                               : 31.250 FPS (1536 SPF)
  45. Compression mode                         : Lossy
  46. Stream size                              : 492 MiB (7%)
  47. Title                                    : English
  48. Language                                 : English
  49. Service kind                             : Complete Main
  50. Default                                  : Yes
  51. Forced                                   : No
  52. Text
  53. ID                                       : 3
  54. Format                                   : UTF-8
  55. Codec ID                                 : S_TEXT/UTF8
  56. Codec ID/Info                            : UTF-8 Plain Text
  57. Duration                                 : 1 h 47 min
  58. Bit rate                                 : 100 b/s
  59. Count of elements                        : 2018
  60. Stream size                              : 78.6 KiB (0%)
  61. Title                                    : English (SDH)
  62. Language                                 : English
  63. Default                                  : No
  64. Forced                                   : No
复制代码









回复

使用道具 举报

懒得打字嘛,点击右侧快捷回复 【右侧内容,后台自定义】
您需要登录后才可以回帖 登录 | 立即加入

本版积分规则

Archiver|小黑屋| 蓝光电影网 |网站地图

Copyright © 2021 Comsenz Inc. Powered by 蓝光电影网

蓝光电影网

本站内容由用户自主分享和转载自互联网,转载目的在于传递更多信息,并不代表本网赞同其观点和对其真实性负责。

如有侵权、违反国家法律政策行为,请联系我们,我们会第一时间及时清除和处理!

举报反馈邮箱:[email protected]

快速回复 返回顶部 返回列表