找回密码

蓝光电影网

查看: 23|回复: 0

[剧情] 明日歌.As.You.Were.2014.1080p.AMZN.WEBRip.DDP2.0.x264-COPiUM 6.41GB

[复制链接]
蓝光币
1080
发表于 2023-1-10 16:11:58 | 显示全部楼层 |阅读模式


◎译  名 明日歌 / As You Were
◎年  代 2014
◎产  地 新加坡
◎类  别 剧情 / 恋爱
◎语  言 汉语普通话
◎上映日期 2014-10-27
◎IMDb链接 https://www.imdb.com/title/tt3749512/
◎豆瓣链接 https://movie.douban.com/subject/26339016/
◎片  长 92分钟
◎导  演 廖捷凯 Jiekai Liao
◎编  剧 廖捷凯 Jiekai Liao
◎演  员 陈美添 Bee Thiam Tan
       廖捷凯 Jiekai Liao
       陈美添 Bee Thiam Tan
◎简  介
  Guohui and Peiling were childhood sweethearts who met again after years of being apart and became a couple. On an idyllic island south of Singapore, they spend their last moments together as their relationship falls apart. The film is about the impossibility of knowing what has made people change. Through the ever-changing landscape, Guohui and Peiling realise that what is tran...
◎获奖情况 (共1项)
  第27届东京国际电影节 (2014)
  亚洲未来单元 最好影片(提名)
   └──廖捷凯
  1. Video
  2. ID                                       : 1
  3. Format                                   : AVC
  4. Format/Info                              : Advanced Video Codec
  5. Format profile                           : [email protected]
  6. Format settings                          : CABAC / 4 Ref Frames
  7. Format settings, CABAC                   : Yes
  8. Format settings, Reference frames        : 4 frames
  9. Codec ID                                 : V_MPEG4/ISO/AVC
  10. Duration                                 : 1 h 35 min
  11. Bit rate mode                            : Constant
  12. Bit rate                                 : 9 347 kb/s
  13. Nominal bit rate                         : 10 000 kb/s
  14. Width                                    : 1 440 pixels
  15. Height                                   : 1 080 pixels
  16. Display aspect ratio                     : 4:3
  17. Frame rate mode                          : Constant
  18. Frame rate                               : 24.000 FPS
  19. Color space                              : YUV
  20. Chroma subsampling                       : 4:2:0
  21. Bit depth                                : 8 bits
  22. Scan type                                : Progressive
  23. Bits/(Pixel*Frame)                       : 0.250
  24. Stream size                              : 6.25 GiB (98%)
  25. Language                                 : English (US)
  26. Default                                  : Yes
  27. Forced                                   : No
  28. Color range                              : Limited
  29. Color primaries                          : BT.709
  30. Transfer characteristics                 : BT.709
  31. Matrix coefficients                      : BT.709
  32. Audio
  33. ID                                       : 2
  34. Format                                   : E-AC-3
  35. Format/Info                              : Enhanced AC-3
  36. Commercial name                          : Dolby Digital Plus
  37. Codec ID                                 : A_EAC3
  38. Duration                                 : 1 h 35 min
  39. Bit rate mode                            : Constant
  40. Bit rate                                 : 224 kb/s
  41. Channel(s)                               : 2 channels
  42. Channel layout                           : L R
  43. Sampling rate                            : 48.0 kHz
  44. Frame rate                               : 31.250 FPS (1536 SPF)
  45. Compression mode                         : Lossy
  46. Stream size                              : 153 MiB (2%)
  47. Language                                 : English
  48. Service kind                             : Complete Main
  49. Default                                  : Yes
  50. Forced                                   : No
  51. Text #1
  52. ID                                       : 3
  53. Format                                   : UTF-8
  54. Codec ID                                 : S_TEXT/UTF8
  55. Codec ID/Info                            : UTF-8 Plain Text
  56. Duration                                 : 1 h 33 min
  57. Bit rate                                 : 17 b/s
  58. Frame rate                               : 0.069 FPS
  59. Count of elements                        : 388
  60. Stream size                              : 12.2 KiB (0%)
  61. Language                                 : English (US)
  62. Default                                  : No
  63. Forced                                   : No
  64. Text #2
  65. ID                                       : 4
  66. Format                                   : UTF-8
  67. Codec ID                                 : S_TEXT/UTF8
  68. Codec ID/Info                            : UTF-8 Plain Text
  69. Duration                                 : 1 h 33 min
  70. Bit rate                                 : 17 b/s
  71. Frame rate                               : 0.070 FPS
  72. Count of elements                        : 394
  73. Stream size                              : 12.2 KiB (0%)
  74. Language                                 : Italian (IT)
  75. Default                                  : No
  76. Forced                                   : No
  77. Text #3
  78. ID                                       : 5
  79. Format                                   : UTF-8
  80. Codec ID                                 : S_TEXT/UTF8
  81. Codec ID/Info                            : UTF-8 Plain Text
  82. Duration                                 : 1 h 33 min
  83. Bit rate                                 : 17 b/s
  84. Frame rate                               : 0.071 FPS
  85. Count of elements                        : 399
  86. Stream size                              : 12.0 KiB (0%)
  87. Title                                    : Brazilian
  88. Language                                 : Portuguese (BR)
  89. Default                                  : No
  90. Forced                                   : No
复制代码











回复

使用道具 举报

懒得打字嘛,点击右侧快捷回复 【右侧内容,后台自定义】
您需要登录后才可以回帖 登录 | 立即加入

本版积分规则

Archiver|小黑屋| 蓝光电影网 |网站地图

Copyright © 2021 Comsenz Inc. Powered by 蓝光电影网

蓝光电影网

本站内容由用户自主分享和转载自互联网,转载目的在于传递更多信息,并不代表本网赞同其观点和对其真实性负责。

如有侵权、违反国家法律政策行为,请联系我们,我们会第一时间及时清除和处理!

举报反馈邮箱:[email protected]

快速回复 返回顶部 返回列表