找回密码

蓝光电影网

查看: 14|回复: 0

[惊悚] 异界余生[中文字幕].The.Worthy.2016.ARABIC.1080p.NF.WEBRip.DDP5.1.x264-PTerWEB 5.03GB

[复制链接]
蓝光币
1084
发表于 2023-1-10 16:12:00 | 显示全部楼层 |阅读模式


◎标  题 异界余生
◎片  名 The Worthy
◎年  代 2017
◎产  地 阿联酋
◎类  别 惊悚
◎IMDb评分 5.1/10 (1886人评价)
◎IMDb链接 https://www.imdb.com/title/tt4943218/
◎豆瓣链接 https://movie.douban.com/subject/27595331/
◎片  长 99分钟
◎标  签 阿联酋 / 科幻 / 2017 / 灾难 / 行动 / 阿联酋电影 / 剧情 / 电影
◎简  介
    在天下上绝大大都的供水被致命净化以后,一小群幸存者在某稀有清洁水源四周出亡,并介入了一场致命的猫鼠游戏,为了活命,必须与入侵者一战。
  1. Video
  2. ID                                       : 1
  3. Format                                   : AVC
  4. Format/Info                              : Advanced Video Codec
  5. Format profile                           : [email protected]
  6. Format settings                          : CABAC / 4 Ref Frames
  7. Format settings, CABAC                   : Yes
  8. Format settings, Reference frames        : 4 frames
  9. Codec ID                                 : V_MPEG4/ISO/AVC
  10. Duration                                 : 1 h 39 min
  11. Bit rate mode                            : Variable
  12. Bit rate                                 : 6 604 kb/s
  13. Maximum bit rate                         : 20.0 Mb/s
  14. Width                                    : 1 920 pixels
  15. Height                                   : 1 080 pixels
  16. Display aspect ratio                     : 16:9
  17. Frame rate mode                          : Constant
  18. Frame rate                               : 23.976 (24000/1001) FPS
  19. Color space                              : YUV
  20. Chroma subsampling                       : 4:2:0
  21. Bit depth                                : 8 bits
  22. Scan type                                : Progressive
  23. Bits/(Pixel*Frame)                       : 0.133
  24. Stream size                              : 4.58 GiB (91%)
  25. Writing library                          : x264 core 148 r2715 7e75228
  26. Encoding settings                        : cabac=1 / ref=4 / deblock=1:0:0 / analyse=0x3:0x111 / me=umh / subme=10 / psy=1 / psy_rd=1.00:0.00 / mixed_ref=1 / me_range=120 / chroma_me=1 / trellis=2 / 8x8dct=1 / cqm=0 / deadzone=21,11 / fast_pskip=1 / chroma_qp_offset=-2 / threads=8 / lookahead_threads=2 / sliced_threads=0 / nr=0 / decimate=1 / interlaced=0 / bluray_compat=0 / stitchable=1 / constrained_intra=0 / bframes=16 / b_pyramid=2 / b_adapt=2 / b_bias=0 / direct=3 / weightb=1 / open_gop=0 / weightp=2 / keyint=240 / keyint_min=121 / scenecut=0 / intra_refresh=0 / rc_lookahead=240 / rc=crf / mbtree=1 / crf=16.0 / qcomp=0.50 / qpmin=6 / qpmax=51 / qpstep=4 / vbv_maxrate=20000 / vbv_bufsize=25000 / crf_max=0.0 / nal_hrd=vbr / filler=0 / ip_ratio=1.40 / aq=1:0.80
  27. Default                                  : Yes
  28. Forced                                   : No
  29. Audio
  30. ID                                       : 2
  31. Format                                   : E-AC-3
  32. Format/Info                              : Enhanced AC-3
  33. Commercial name                          : Dolby Digital Plus
  34. Codec ID                                 : A_EAC3
  35. Duration                                 : 1 h 39 min
  36. Bit rate mode                            : Constant
  37. Bit rate                                 : 640 kb/s
  38. Channel(s)                               : 6 channels
  39. Channel layout                           : L R C LFE Ls Rs
  40. Sampling rate                            : 48.0 kHz
  41. Frame rate                               : 31.250 FPS (1536 SPF)
  42. Compression mode                         : Lossy
  43. Stream size                              : 455 MiB (9%)
  44. Language                                 : Arabic
  45. Service kind                             : Complete Main
  46. Default                                  : Yes
  47. Forced                                   : No
  48. Text #1
  49. ID                                       : 3
  50. Format                                   : UTF-8
  51. Codec ID                                 : S_TEXT/UTF8
  52. Codec ID/Info                            : UTF-8 Plain Text
  53. Duration                                 : 14 min 3 s
  54. Bit rate                                 : 1 b/s
  55. Frame rate                               : 0.002 FPS
  56. Count of elements                        : 2
  57. Stream size                              : 137 Bytes (0%)
  58. Title                                    : Forced
  59. Language                                 : Arabic
  60. Default                                  : No
  61. Forced                                   : No
  62. Text #2
  63. ID                                       : 4
  64. Format                                   : UTF-8
  65. Codec ID                                 : S_TEXT/UTF8
  66. Codec ID/Info                            : UTF-8 Plain Text
  67. Duration                                 : 1 h 32 min
  68. Bit rate                                 : 54 b/s
  69. Frame rate                               : 0.158 FPS
  70. Count of elements                        : 874
  71. Stream size                              : 36.6 KiB (0%)
  72. Title                                    : SDH
  73. Language                                 : Arabic
  74. Default                                  : No
  75. Forced                                   : No
  76. Text #3
  77. ID                                       : 5
  78. Format                                   : UTF-8
  79. Codec ID                                 : S_TEXT/UTF8
  80. Codec ID/Info                            : UTF-8 Plain Text
  81. Duration                                 : 1 h 38 min
  82. Bit rate                                 : 29 b/s
  83. Frame rate                               : 0.125 FPS
  84. Count of elements                        : 733
  85. Stream size                              : 21.3 KiB (0%)
  86. Language                                 : Danish
  87. Default                                  : No
  88. Forced                                   : No
  89. Text #4
  90. ID                                       : 6
  91. Format                                   : UTF-8
  92. Codec ID                                 : S_TEXT/UTF8
  93. Codec ID/Info                            : UTF-8 Plain Text
  94. Duration                                 : 1 h 38 min
  95. Bit rate                                 : 34 b/s
  96. Frame rate                               : 0.124 FPS
  97. Count of elements                        : 730
  98. Stream size                              : 24.9 KiB (0%)
  99. Language                                 : German
  100. Default                                  : No
  101. Forced                                   : No
  102. Text #5
  103. ID                                       : 7
  104. Format                                   : UTF-8
  105. Codec ID                                 : S_TEXT/UTF8
  106. Codec ID/Info                            : UTF-8 Plain Text
  107. Duration                                 : 1 h 37 min
  108. Bit rate                                 : 49 b/s
  109. Frame rate                               : 0.123 FPS
  110. Count of elements                        : 720
  111. Stream size                              : 35.6 KiB (0%)
  112. Language                                 : Greek
  113. Default                                  : No
  114. Forced                                   : No
  115. Text #6
  116. ID                                       : 8
  117. Format                                   : UTF-8
  118. Codec ID                                 : S_TEXT/UTF8
  119. Codec ID/Info                            : UTF-8 Plain Text
  120. Duration                                 : 1 h 32 min
  121. Bit rate                                 : 30 b/s
  122. Frame rate                               : 0.141 FPS
  123. Count of elements                        : 780
  124. Stream size                              : 20.8 KiB (0%)
  125. Language                                 : English
  126. Default                                  : No
  127. Forced                                   : No
  128. Text #7
  129. ID                                       : 9
  130. Format                                   : UTF-8
  131. Codec ID                                 : S_TEXT/UTF8
  132. Codec ID/Info                            : UTF-8 Plain Text
  133. Duration                                 : 1 h 38 min
  134. Bit rate                                 : 28 b/s
  135. Frame rate                               : 0.123 FPS
  136. Count of elements                        : 724
  137. Stream size                              : 20.8 KiB (0%)
  138. Title                                    : Espa?a
  139. Language                                 : Spanish (ES)
  140. Default                                  : No
  141. Forced                                   : No
  142. Text #8
  143. ID                                       : 10
  144. Format                                   : UTF-8
  145. Codec ID                                 : S_TEXT/UTF8
  146. Codec ID/Info                            : UTF-8 Plain Text
  147. Duration                                 : 1 h 38 min
  148. Bit rate                                 : 29 b/s
  149. Frame rate                               : 0.122 FPS
  150. Count of elements                        : 722
  151. Stream size                              : 21.4 KiB (0%)
  152. Title                                    : Latinoamérica
  153. Language                                 : Spanish
  154. Default                                  : No
  155. Forced                                   : No
  156. Text #9
  157. ID                                       : 11
  158. Format                                   : UTF-8
  159. Codec ID                                 : S_TEXT/UTF8
  160. Codec ID/Info                            : UTF-8 Plain Text
  161. Duration                                 : 1 h 32 min
  162. Bit rate                                 : 28 b/s
  163. Frame rate                               : 0.120 FPS
  164. Count of elements                        : 664
  165. Stream size                              : 19.4 KiB (0%)
  166. Language                                 : Finnish
  167. Default                                  : No
  168. Forced                                   : No
  169. Text #10
  170. ID                                       : 12
  171. Format                                   : UTF-8
  172. Codec ID                                 : S_TEXT/UTF8
  173. Codec ID/Info                            : UTF-8 Plain Text
  174. Duration                                 : 1 h 37 min
  175. Bit rate                                 : 28 b/s
  176. Frame rate                               : 0.123 FPS
  177. Count of elements                        : 721
  178. Stream size                              : 20.4 KiB (0%)
  179. Language                                 : French
  180. Default                                  : No
  181. Forced                                   : No
  182. Text #11
  183. ID                                       : 13
  184. Format                                   : UTF-8
  185. Codec ID                                 : S_TEXT/UTF8
  186. Codec ID/Info                            : UTF-8 Plain Text
  187. Duration                                 : 1 h 37 min
  188. Bit rate                                 : 39 b/s
  189. Frame rate                               : 0.123 FPS
  190. Count of elements                        : 724
  191. Stream size                              : 28.7 KiB (0%)
  192. Language                                 : Hebrew
  193. Default                                  : No
  194. Forced                                   : No
  195. Text #12
  196. ID                                       : 14
  197. Format                                   : UTF-8
  198. Codec ID                                 : S_TEXT/UTF8
  199. Codec ID/Info                            : UTF-8 Plain Text
  200. Duration                                 : 1 h 38 min
  201. Bit rate                                 : 28 b/s
  202. Frame rate                               : 0.122 FPS
  203. Count of elements                        : 717
  204. Stream size                              : 20.6 KiB (0%)
  205. Language                                 : Italian
  206. Default                                  : No
  207. Forced                                   : No
  208. Text #13
  209. ID                                       : 15
  210. Format                                   : UTF-8
  211. Codec ID                                 : S_TEXT/UTF8
  212. Codec ID/Info                            : UTF-8 Plain Text
  213. Duration                                 : 1 h 37 min
  214. Bit rate                                 : 23 b/s
  215. Frame rate                               : 0.129 FPS
  216. Count of elements                        : 761
  217. Stream size                              : 17.1 KiB (0%)
  218. Language                                 : Japanese
  219. Default                                  : No
  220. Forced                                   : No
  221. Text #14
  222. ID                                       : 16
  223. Format                                   : UTF-8
  224. Codec ID                                 : S_TEXT/UTF8
  225. Codec ID/Info                            : UTF-8 Plain Text
  226. Duration                                 : 1 h 38 min
  227. Bit rate                                 : 29 b/s
  228. Frame rate                               : 0.123 FPS
  229. Count of elements                        : 727
  230. Stream size                              : 20.9 KiB (0%)
  231. Language                                 : Korean
  232. Default                                  : No
  233. Forced                                   : No
  234. Text #15
  235. ID                                       : 17
  236. Format                                   : UTF-8
  237. Codec ID                                 : S_TEXT/UTF8
  238. Codec ID/Info                            : UTF-8 Plain Text
  239. Duration                                 : 1 h 38 min
  240. Bit rate                                 : 28 b/s
  241. Frame rate                               : 0.115 FPS
  242. Count of elements                        : 678
  243. Stream size                              : 20.5 KiB (0%)
  244. Language                                 : Norwegian Bokmal
  245. Default                                  : No
  246. Forced                                   : No
  247. Text #16
  248. ID                                       : 18
  249. Format                                   : UTF-8
  250. Codec ID                                 : S_TEXT/UTF8
  251. Codec ID/Info                            : UTF-8 Plain Text
  252. Duration                                 : 1 h 37 min
  253. Bit rate                                 : 25 b/s
  254. Frame rate                               : 0.102 FPS
  255. Count of elements                        : 602
  256. Stream size                              : 18.0 KiB (0%)
  257. Language                                 : Dutch
  258. Default                                  : No
  259. Forced                                   : No
  260. Text #17
  261. ID                                       : 19
  262. Format                                   : UTF-8
  263. Codec ID                                 : S_TEXT/UTF8
  264. Codec ID/Info                            : UTF-8 Plain Text
  265. Duration                                 : 1 h 38 min
  266. Bit rate                                 : 27 b/s
  267. Frame rate                               : 0.118 FPS
  268. Count of elements                        : 696
  269. Stream size                              : 19.7 KiB (0%)
  270. Language                                 : Polish
  271. Default                                  : No
  272. Forced                                   : No
  273. Text #18
  274. ID                                       : 20
  275. Format                                   : UTF-8
  276. Codec ID                                 : S_TEXT/UTF8
  277. Codec ID/Info                            : UTF-8 Plain Text
  278. Duration                                 : 1 h 37 min
  279. Bit rate                                 : 27 b/s
  280. Frame rate                               : 0.118 FPS
  281. Count of elements                        : 695
  282. Stream size                              : 19.8 KiB (0%)
  283. Title                                    : Brasil
  284. Language                                 : Portuguese (BR)
  285. Default                                  : No
  286. Forced                                   : No
  287. Text #19
  288. ID                                       : 21
  289. Format                                   : UTF-8
  290. Codec ID                                 : S_TEXT/UTF8
  291. Codec ID/Info                            : UTF-8 Plain Text
  292. Duration                                 : 1 h 37 min
  293. Bit rate                                 : 28 b/s
  294. Frame rate                               : 0.123 FPS
  295. Count of elements                        : 724
  296. Stream size                              : 20.5 KiB (0%)
  297. Title                                    : Portugal
  298. Language                                 : Portuguese
  299. Default                                  : No
  300. Forced                                   : No
  301. Text #20
  302. ID                                       : 22
  303. Format                                   : UTF-8
  304. Codec ID                                 : S_TEXT/UTF8
  305. Codec ID/Info                            : UTF-8 Plain Text
  306. Duration                                 : 1 h 32 min
  307. Bit rate                                 : 29 b/s
  308. Frame rate                               : 0.130 FPS
  309. Count of elements                        : 719
  310. Stream size                              : 19.9 KiB (0%)
  311. Language                                 : Romanian
  312. Default                                  : No
  313. Forced                                   : No
  314. Text #21
  315. ID                                       : 23
  316. Format                                   : UTF-8
  317. Codec ID                                 : S_TEXT/UTF8
  318. Codec ID/Info                            : UTF-8 Plain Text
  319. Duration                                 : 1 h 32 min
  320. Bit rate                                 : 30 b/s
  321. Frame rate                               : 0.113 FPS
  322. Count of elements                        : 628
  323. Stream size                              : 20.4 KiB (0%)
  324. Language                                 : Swedish
  325. Default                                  : No
  326. Forced                                   : No
  327. Text #22
  328. ID                                       : 24
  329. Format                                   : UTF-8
  330. Codec ID                                 : S_TEXT/UTF8
  331. Codec ID/Info                            : UTF-8 Plain Text
  332. Duration                                 : 1 h 37 min
  333. Bit rate                                 : 70 b/s
  334. Frame rate                               : 0.122 FPS
  335. Count of elements                        : 715
  336. Stream size                              : 50.6 KiB (0%)
  337. Language                                 : Thai
  338. Default                                  : No
  339. Forced                                   : No
  340. Text #23
  341. ID                                       : 25
  342. Format                                   : UTF-8
  343. Codec ID                                 : S_TEXT/UTF8
  344. Codec ID/Info                            : UTF-8 Plain Text
  345. Duration                                 : 1 h 38 min
  346. Bit rate                                 : 30 b/s
  347. Frame rate                               : 0.123 FPS
  348. Count of elements                        : 726
  349. Stream size                              : 22.1 KiB (0%)
  350. Language                                 : Turkish
  351. Default                                  : No
  352. Forced                                   : No
  353. Text #24
  354. ID                                       : 26
  355. Format                                   : UTF-8
  356. Codec ID                                 : S_TEXT/UTF8
  357. Codec ID/Info                            : UTF-8 Plain Text
  358. Duration                                 : 1 h 38 min
  359. Bit rate                                 : 39 b/s
  360. Frame rate                               : 0.123 FPS
  361. Count of elements                        : 727
  362. Stream size                              : 28.1 KiB (0%)
  363. Language                                 : Vietnamese
  364. Default                                  : No
  365. Forced                                   : No
  366. Text #25
  367. ID                                       : 27
  368. Format                                   : UTF-8
  369. Codec ID                                 : S_TEXT/UTF8
  370. Codec ID/Info                            : UTF-8 Plain Text
  371. Duration                                 : 1 h 38 min
  372. Bit rate                                 : 24 b/s
  373. Frame rate                               : 0.123 FPS
  374. Count of elements                        : 727
  375. Stream size                              : 17.5 KiB (0%)
  376. Title                                    : 中文[简体]
  377. Language                                 : Chinese (Simplied)
  378. Default                                  : No
  379. Forced                                   : No
  380. Text #26
  381. ID                                       : 28
  382. Format                                   : UTF-8
  383. Codec ID                                 : S_TEXT/UTF8
  384. Codec ID/Info                            : UTF-8 Plain Text
  385. Duration                                 : 1 h 38 min
  386. Bit rate                                 : 24 b/s
  387. Frame rate                               : 0.123 FPS
  388. Count of elements                        : 727
  389. Stream size                              : 17.4 KiB (0%)
  390. Title                                    : 中文[繁體]
  391. Language                                 : Chinese (Traditional)
  392. Default                                  : No
  393. Forced                                   : No
复制代码











回复

使用道具 举报

懒得打字嘛,点击右侧快捷回复 【右侧内容,后台自定义】
您需要登录后才可以回帖 登录 | 立即加入

本版积分规则

Archiver|小黑屋| 蓝光电影网 |网站地图

Copyright © 2021 Comsenz Inc. Powered by 蓝光电影网

蓝光电影网

本站内容由用户自主分享和转载自互联网,转载目的在于传递更多信息,并不代表本网赞同其观点和对其真实性负责。

如有侵权、违反国家法律政策行为,请联系我们,我们会第一时间及时清除和处理!

举报反馈邮箱:[email protected]

快速回复 返回顶部 返回列表