找回密码

蓝光电影网

查看: 35|回复: 0

[2160p] 绿里奇迹.The.Green.Mile.1999.2160p.UHD.BluRay.x265.10bit.HDR.DDP5.1-RARBG 11.41GB

[复制链接]
蓝光币
1082
发表于 2023-1-10 16:12:11 | 显示全部楼层 |阅读模式


◎标  题 绿里奇迹
◎译  名 绿色奇迹(台) / 绿色英里 / 绿里 / 绿地
◎片  名 The Green Mile
◎年  代 1999
◎产  地 美国
◎类  别 剧情 / 悬疑 / 犯罪 / 奇异
◎语  言 英语 / 法语
◎上映日期 1999-12-10(美国)
◎IMDb评分 8.6/10 (1303136人评价)
◎IMDb链接 https://www.imdb.com/title/tt0120689/
◎豆瓣评分 8.9/10 (313313人评价)
◎豆瓣链接 https://movie.douban.com/subject/1300374/
◎片  长 189 分钟
◎导  演 弗兰克·德拉邦特 Frank Darabont
◎编  剧 弗兰克·德拉邦特 Frank Darabont
       斯蒂芬·金 Stephen King
◎演  员 汤姆·汉克斯 Tom Hanks
       大卫·摩斯 David Morse
       迈克·克拉克·邓肯 Michael Clarke Duncan
       邦尼·亨特 Bonnie Hunt
       詹姆斯·克伦威尔 James Cromwell
       迈克尔·杰特 Michael Jeter
       格雷厄姆·格林 Graham Greene
       道格·休切逊 Doug Hutchison
       山姆·洛克威尔 Sam Rockwell
       巴里·佩珀 Barry Pepper
       杰弗里·德曼 Jeffrey DeMunn
       派翠西娅·克拉克森 Patricia Clarkson
       哈利·戴恩·斯坦通 Harry Dean Stanton
       戴布思·格里尔 Dabbs Greer
       伊芙·布伦特 Eve Brent
       布赖恩·利比 Brian Libby
       葆拉·马尔科姆森 Paula Malcomson
       Toy Spears Toy Spears
       加里·西尼斯 Gary Sinise
       布兰特·布里斯科 Brent Briscoe
       Tim Smith Tim Smith
       范·埃佩尔森 Van Epperson
       Robert Malone Robert Malone
       泰德·霍利斯 Ted Hollis
       Edrie Warner Edrie Warner
       Todd Thompson Todd Thompson
       莱·塔斯科 Rai Tasco
       Garth Shaw Garth Shaw
       比尔·麦金尼 Bill McKinney
       史考蒂·莱文沃斯 Scotty Leavenworth
       加里·英霍夫 Gary Imhoff
       Dono Langley Dono Langley
       Christopher Joel Ives Christopher Joel Ives
       菲尔霍恩 Phil Hawn
       威廉姆·赛德勒 William Sadler
       弗兰克·德拉邦特 Frank Darabont
       大卫·瓦尔德 David Valdes
       托马斯·纽曼 Thomas Newman
       David Tattersall David Tattersall
       理查德·弗朗西斯-布鲁斯 Richard Francis-Bruce
       马里·芬恩 Mali Finn
       泰伦斯·马什 Terence Marsh
       迈克尔·塞尔顿 Michael Seirton
       洛伊斯·布尔维尔 Lois Burwell
       霍华德·伯杰 Howard Berger
       格里高利·尼克特洛 Gregory Nicotero
       Janis Clark Janis Clark
       Katherine Rees Katherine Rees
       小约翰·M·艾略特 John M. Elliott Jr.
       黛博拉·拉·米亚·德内弗 Deborah La Mia Denaver
       Alan Tuskes Alan Tuskes
       Nina Paskowitz Nina Paskowitz
       丹尼尔C.斯瑞派克 Daniel C. Striepeke
       罗伯特库兹曼 Robert Kurtzman
       Jules Kovisars Jules Kovisars
       查尔斯·吉布森 Charles Gibson
       查尔斯·吉布森 Charles Gibson
       贝丝·达马托 Beth D'Amato
       克莱格·巴朗 Craig Barron
       David Latour David Latour
       Rick O'Connor Rick O'Connor
       Bob Powell Bob Powell
       潘国瑜 Ellen Poon
       克里斯托弗·埃文斯 Christopher Evans
       Stephanie Hornish Stephanie Hornish
       Lawrence Littleton Lawrence Littleton
       比尔·克罗耶尔 Bill Kroyer
       托马斯·罗塞特 Thomas Rosseter
       Nancy Kato Nancy Kato
       布雷特·诺特卡特 Brett Northcutt
       John Dietz John Dietz
       布兰登·克雷格 Brandon Craig
       Royce Hager Royce Hager
       David Sosalla David Sosalla
       肯尼斯·史姑娘 Kenneth Smith
       David Weitzberg David Weitzberg
◎简  介
  狱监保罗(汤姆•汉克斯 Tom Hanks 饰)此日迎来了一位不服凡的杀人犯――约翰•考夫利(迈克•克拉克•邓肯 Michael Clarke Duncan 饰)。约翰因杀了两名幼女被判死刑来到了这座著名的冷山牢狱,牢狱里有一片称为“绿里”的绿地,绿地那头就是刑场。                                    
                                约翰不但不像设想中的凶残,相反,他出奇的温厚、机智。约翰的到来给狱中的大家带来了天翻地覆的变化:为老犯人特里沃的小老鼠注入了生命的强度,给特里沃最初的人生带来最初的慰籍;奇异的拯救了被病痛熬煎的保罗和马琳达;将金保斯从死神手中拉了返来……保罗这些天也从约翰身上看到了人生的真理。                                    
                                约翰行刑的那天终究到了。
  1. Video
  2. ID                                       : 1
  3. Format                                   : HEVC
  4. Format/Info                              : High Efficiency Video Coding
  5. Format profile                           : Main [email protected]@Main
  6. HDR format                               : SMPTE ST 2086, HDR10 compatible
  7. Codec ID                                 : V_MPEGH/ISO/HEVC
  8. Duration                                 : 3 h 8 min
  9. Bit rate                                 : 8 021 kb/s
  10. Width                                    : 3 840 pixels
  11. Height                                   : 2 076 pixels
  12. Display aspect ratio                     : 1.85:1
  13. Frame rate mode                          : Constant
  14. Frame rate                               : 23.976 (24000/1001) FPS
  15. Color space                              : YUV
  16. Chroma subsampling                       : 4:2:0
  17. Bit depth                                : 10 bits
  18. Bits/(Pixel*Frame)                       : 0.042
  19. Stream size                              : 10.6 GiB (93%)
  20. Writing library                          : x265 3.5+rarbg-HDR-38-20255e6:[Linux][clang 16.0.0][64 bit] 10bit
  21. Encoding settings                        : cpuid=1111039 / frame-threads=6 / wpp / no-pmode / no-pme / no-psnr / no-ssim / log-level=2 / input-csp=1 / input-res=3840x2076 / interlace=0 / total-frames=0 / level-idc=51 / high-tier=1 / uhd-bd=0 / ref=4 / no-allow-non-conformance / repeat-headers / annexb / aud / no-eob / no-eos / no-hrd / info / hash=0 / no-temporal-layers / no-open-gop / min-keyint=1 / keyint=24 / gop-lookahead=0 / bframes=4 / b-adapt=2 / b-pyramid / bframe-bias=0 / rc-lookahead=25 / lookahead-slices=4 / scenecut=40 / no-hist-scenecut / radl=0 / no-splice / no-intra-refresh / ctu=64 / min-cu-size=8 / rect / no-amp / max-tu-size=32 / tu-inter-depth=1 / tu-intra-depth=1 / limit-tu=0 / rdoq-level=2 / dynamic-rd=0.00 / no-ssim-rd / signhide / no-tskip / nr-intra=0 / nr-inter=0 / no-constrained-intra / strong-intra-smoothing / max-merge=3 / limit-refs=3 / no-limit-modes / me=3 / subme=3 / merange=57 / temporal-mvp / no-frame-dup / no-hme / weightp / no-weightb / no-analyze-src-pics / deblock=0:0 / no-sao / no-sao-non-deblock / rd=4 / selective-sao=0 / no-early-skip / rskip / no-fast-intra / no-tskip-fast / no-cu-lossless / no-b-intra / no-splitrd-skip / rdpenalty=0 / psy-rd=2.00 / psy-rdoq=1.00 / no-rd-refine / no-lossless / cbqpoffs=0 / crqpoffs=0 / rc=abr / bitrate=8000 / qcomp=0.60 / qpstep=4 / stats-write=0 / stats-read=2 / cplxblur=20.0 / qblur=0.5 / ipratio=1.40 / pbratio=1.30 / aq-mode=1 / aq-strength=1.00 / cutree / zone-count=0 / no-strict-cbr / qg-size=32 / no-rc-grain / qpmax=69 / qpmin=0 / no-const-vbv / sar=1 / overscan=0 / videoformat=5 / range=0 / colorprim=9 / transfer=16 / colormatrix=9 / chromaloc=0 / display-window=0 / master-display=G(13250,34500)B(7500,3000)R(34000,16000)WP(15635,16450)L(40000000,50) / cll=1114,109 / min-luma=0 / max-luma=1023 / log2-max-poc-lsb=8 / vui-timing-info / vui-hrd-info / slices=1 / no-opt-qp-pps / no-opt-ref-list-length-pps / no-multi-pass-opt-rps / scenecut-bias=0.05 / hist-threshold=0.03 / no-opt-cu-delta-qp / no-aq-motion / hdr10 / hdr10-opt / no-dhdr10-opt / no-idr-recovery-sei / analysis-reuse-level=0 / analysis-save-reuse-level=0 / analysis-load-reuse-level=0 / scale-factor=0 / refine-intra=0 / refine-inter=0 / refine-mv=1 / refine-ctu-distortion=0 / no-limit-sao / ctu-info=0 / no-lowpass-dct / refine-analysis-type=0 / copy-pic=1 / max-ausize-factor=1.0 / no-dynamic-refine / no-single-sei / no-hevc-aq / no-svt / no-field / qp-adaptation-range=1.00 / scenecut-aware-qp=0conformance-window-offsets / right=0 / bottom=0 / decoder-max-rate=0 / no-vbv-live-multi-pass
  22. Default                                  : Yes
  23. Forced                                   : No
  24. Color range                              : Limited
  25. Color primaries                          : BT.2020
  26. Transfer characteristics                 : PQ
  27. Matrix coefficients                      : BT.2020 non-constant
  28. Mastering display color primaries        : Display P3
  29. Mastering display luminance              : min: 0.0050 cd/m2, max: 4000 cd/m2
  30. Maximum Content Light Level              : 1114 cd/m2
  31. Maximum Frame-Average Light Level        : 109 cd/m2
  32. Audio
  33. ID                                       : 2
  34. Format                                   : E-AC-3
  35. Format/Info                              : Enhanced AC-3
  36. Commercial name                          : Dolby Digital Plus
  37. Codec ID                                 : A_EAC3
  38. Duration                                 : 3 h 8 min
  39. Bit rate mode                            : Constant
  40. Bit rate                                 : 640 kb/s
  41. Channel(s)                               : 6 channels
  42. Channel layout                           : L R C LFE Ls Rs
  43. Sampling rate                            : 48.0 kHz
  44. Frame rate                               : 31.250 FPS (1536 SPF)
  45. Compression mode                         : Lossy
  46. Stream size                              : 863 MiB (7%)
  47. Title                                    : English DDP 5.1
  48. Language                                 : English
  49. Service kind                             : Complete Main
  50. Default                                  : Yes
  51. Forced                                   : No
  52. Text #1
  53. ID                                       : 3
  54. Format                                   : UTF-8
  55. Codec ID                                 : S_TEXT/UTF8
  56. Codec ID/Info                            : UTF-8 Plain Text
  57. Duration                                 : 3 h 0 min
  58. Bit rate                                 : 42 b/s
  59. Frame rate                               : 0.164 FPS
  60. Count of elements                        : 1779
  61. Stream size                              : 56.3 KiB (0%)
  62. Title                                    : English SRT
  63. Language                                 : English
  64. Default                                  : Yes
  65. Forced                                   : No
  66. Text #2
  67. ID                                       : 4
  68. Format                                   : UTF-8
  69. Codec ID                                 : S_TEXT/UTF8
  70. Codec ID/Info                            : UTF-8 Plain Text
  71. Duration                                 : 3 h 0 min
  72. Bit rate                                 : 44 b/s
  73. Frame rate                               : 0.181 FPS
  74. Count of elements                        : 1965
  75. Stream size                              : 59.3 KiB (0%)
  76. Title                                    : English SDH SRT
  77. Language                                 : English
  78. Default                                  : No
  79. Forced                                   : No
  80. Menu
  81. 00:00:00.000                             : en:Chapter 01
  82. 00:03:59.364                             : en:Chapter 02
  83. 00:07:41.252                             : en:Chapter 03
  84. 00:10:24.165                             : en:Chapter 04
  85. 00:15:49.949                             : en:Chapter 05
  86. 00:18:16.512                             : en:Chapter 06
  87. 00:21:51.560                             : en:Chapter 07
  88. 00:25:13.887                             : en:Chapter 08
  89. 00:27:10.462                             : en:Chapter 09
  90. 00:30:51.516                             : en:Chapter 10
  91. 00:36:25.266                             : en:Chapter 11
  92. 00:41:33.365                             : en:Chapter 12
  93. 00:43:57.509                             : en:Chapter 13
  94. 00:45:54.543                             : en:Chapter 14
  95. 00:47:46.905                             : en:Chapter 15
  96. 00:51:14.696                             : en:Chapter 16
  97. 00:53:31.583                             : en:Chapter 17
  98. 00:55:14.060                             : en:Chapter 18
  99. 01:00:37.634                             : en:Chapter 19
  100. 01:05:14.744                             : en:Chapter 20
  101. 01:08:24.433                             : en:Chapter 21
  102. 01:14:11.697                             : en:Chapter 22
  103. 01:16:13.569                             : en:Chapter 23
  104. 01:21:46.860                             : en:Chapter 24
  105. 01:24:08.877                             : en:Chapter 25
  106. 01:27:36.167                             : en:Chapter 26
  107. 01:30:37.432                             : en:Chapter 27
  108. 01:33:25.933                             : en:Chapter 28
  109. 01:36:38.042                             : en:Chapter 29
  110. 01:40:09.169                             : en:Chapter 30
  111. 01:44:21.463                             : en:Chapter 31
  112. 01:48:01.641                             : en:Chapter 32
  113. 01:52:39.502                             : en:Chapter 33
  114. 01:55:04.105                             : en:Chapter 34
  115. 01:59:51.309                             : en:Chapter 35
  116. 02:03:49.255                             : en:Chapter 36
  117. 02:05:50.000                             : en:Chapter 37
  118. 02:07:56.210                             : en:Chapter 38
  119. 02:10:52.469                             : en:Chapter 39
  120. 02:14:11.752                             : en:Chapter 40
  121. 02:17:56.351                             : en:Chapter 41
  122. 02:21:21.973                             : en:Chapter 42
  123. 02:25:51.576                             : en:Chapter 43
  124. 02:30:04.996                             : en:Chapter 44
  125. 02:34:26.298                             : en:Chapter 45
  126. 02:36:01.268                             : en:Chapter 46
  127. 02:38:19.740                             : en:Chapter 47
  128. 02:42:07.551                             : en:Chapter 48
  129. 02:44:12.259                             : en:Chapter 49
  130. 02:48:52.038                             : en:Chapter 50
  131. 02:53:01.037                             : en:Chapter 51
  132. 02:55:49.163                             : en:Chapter 52
  133. 03:00:34.031                             : en:Chapter 53
复制代码











回复

使用道具 举报

懒得打字嘛,点击右侧快捷回复 【右侧内容,后台自定义】
您需要登录后才可以回帖 登录 | 立即加入

本版积分规则

Archiver|小黑屋| 蓝光电影网 |网站地图

Copyright © 2021 Comsenz Inc. Powered by 蓝光电影网

蓝光电影网

本站内容由用户自主分享和转载自互联网,转载目的在于传递更多信息,并不代表本网赞同其观点和对其真实性负责。

如有侵权、违反国家法律政策行为,请联系我们,我们会第一时间及时清除和处理!

举报反馈邮箱:[email protected]

快速回复 返回顶部 返回列表