找回密码

蓝光电影网

查看: 27|回复: 0

[2160p-WEB] 完全猎魔攻略[中文字幕].A.Babysitters.Guide.to.Monster.Hunting.2020.2160p.NF.WEB-DL.x265.10bit.SDR.DDP5.1.Atmos-CM 8.31GB

[复制链接]
蓝光币
1084
发表于 2023-1-10 16:18:15 | 显示全部楼层 |阅读模式


◎标  题 完全猎魔攻略
◎片  名 A Babysitter's Guide to Monster Hunting
◎年  代 2020
◎产  地 美国
◎类  别 儿童 / 奇异 / 家庭
◎语  言 英语
◎上映日期 2020-10-14
◎IMDb评分 5.4/10 (4373人评价)
◎IMDb链接 https://www.imdb.com/title/tt4844150/
◎豆瓣评分 5.1/10 (109人评价)
◎豆瓣链接 https://movie.douban.com/subject/35164407/
◎导  演 瑞秋·塔拉蕾
◎编  剧 乔·巴拉里尼
◎演  员 乌娜·劳伦斯
       汤姆·费尔顿
       阿列西欧·斯卡尔佐图
       伊恩·霍
       茵蒂娅·摩尔
◎简  介
  当保姆凯莉·弗格森顾问的孩子雅各布被怪物绑架后,她被一个庇护儿童的奥秘保姆构造招募,配合匹敌怪物以拯救雅各布。
  1. Video
  2. ID                                       : 1
  3. Format                                   : HEVC
  4. Format/Info                              : High Efficiency Video Coding
  5. Format profile                           : Main [email protected]@Main
  6. Codec ID                                 : V_MPEGH/ISO/HEVC
  7. Duration                                 : 1 h 38 min
  8. Bit rate                                 : 11.2 Mb/s
  9. Width                                    : 3 840 pixels
  10. Height                                   : 2 160 pixels
  11. Display aspect ratio                     : 16:9
  12. Frame rate mode                          : Constant
  13. Frame rate                               : 24.000 FPS
  14. Color space                              : YUV
  15. Chroma subsampling                       : 4:2:0
  16. Bit depth                                : 10 bits
  17. Bits/(Pixel*Frame)                       : 0.056
  18. Stream size                              : 7.77 GiB (94%)
  19. Default                                  : Yes
  20. Forced                                   : No
  21. Color range                              : Limited
  22. Color primaries                          : BT.709
  23. Transfer characteristics                 : BT.709
  24. Matrix coefficients                      : BT.709
  25. Audio
  26. ID                                       : 2
  27. Format                                   : E-AC-3 JOC
  28. Format/Info                              : Enhanced AC-3 with Joint Object Coding
  29. Commercial name                          : Dolby Digital Plus with Dolby Atmos
  30. Codec ID                                 : A_EAC3
  31. Duration                                 : 1 h 38 min
  32. Bit rate mode                            : Constant
  33. Bit rate                                 : 768 kb/s
  34. Channel(s)                               : 6 channels
  35. Channel layout                           : L R C LFE Ls Rs
  36. Sampling rate                            : 48.0 kHz
  37. Frame rate                               : 31.250 FPS (1536 SPF)
  38. Compression mode                         : Lossy
  39. Stream size                              : 543 MiB (6%)
  40. Title                                    : English
  41. Language                                 : English
  42. Service kind                             : Complete Main
  43. Default                                  : No
  44. Forced                                   : No
  45. Complexity index                         : 16
  46. Number of dynamic objects                : 15
  47. Bed channel count                        : 1 channel
  48. Bed channel configuration                : LFE
  49. Text #1
  50. ID                                       : 3
  51. Format                                   : UTF-8
  52. Codec ID                                 : S_TEXT/UTF8
  53. Codec ID/Info                            : UTF-8 Plain Text
  54. Duration                                 : 1 h 34 min
  55. Bit rate                                 : 92 b/s
  56. Frame rate                               : 0.213 FPS
  57. Count of elements                        : 1210
  58. Stream size                              : 64.2 KiB (0%)
  59. Title                                    : Arabic
  60. Language                                 : Arabic
  61. Default                                  : No
  62. Forced                                   : No
  63. Text #2
  64. ID                                       : 4
  65. Format                                   : UTF-8
  66. Codec ID                                 : S_TEXT/UTF8
  67. Codec ID/Info                            : UTF-8 Plain Text
  68. Duration                                 : 1 h 34 min
  69. Bit rate                                 : 57 b/s
  70. Frame rate                               : 0.213 FPS
  71. Count of elements                        : 1214
  72. Stream size                              : 39.7 KiB (0%)
  73. Title                                    : Chinese Simplified
  74. Language                                 : Chinese
  75. Default                                  : No
  76. Forced                                   : No
  77. Text #3
  78. ID                                       : 5
  79. Format                                   : UTF-8
  80. Codec ID                                 : S_TEXT/UTF8
  81. Codec ID/Info                            : UTF-8 Plain Text
  82. Duration                                 : 1 h 34 min
  83. Bit rate                                 : 50 b/s
  84. Frame rate                               : 0.217 FPS
  85. Count of elements                        : 1234
  86. Stream size                              : 35.3 KiB (0%)
  87. Title                                    : Chinese Traditional
  88. Language                                 : Chinese
  89. Default                                  : No
  90. Forced                                   : No
  91. Text #4
  92. ID                                       : 6
  93. Format                                   : UTF-8
  94. Codec ID                                 : S_TEXT/UTF8
  95. Codec ID/Info                            : UTF-8 Plain Text
  96. Duration                                 : 1 h 34 min
  97. Bit rate                                 : 46 b/s
  98. Frame rate                               : 0.207 FPS
  99. Count of elements                        : 1175
  100. Stream size                              : 32.5 KiB (0%)
  101. Title                                    : Czech
  102. Language                                 : Czech
  103. Default                                  : No
  104. Forced                                   : No
  105. Text #5
  106. ID                                       : 7
  107. Format                                   : UTF-8
  108. Codec ID                                 : S_TEXT/UTF8
  109. Codec ID/Info                            : UTF-8 Plain Text
  110. Duration                                 : 1 h 34 min
  111. Bit rate                                 : 44 b/s
  112. Frame rate                               : 0.213 FPS
  113. Count of elements                        : 1211
  114. Stream size                              : 31.0 KiB (0%)
  115. Title                                    : Danish
  116. Language                                 : Danish
  117. Default                                  : No
  118. Forced                                   : No
  119. Text #6
  120. ID                                       : 8
  121. Format                                   : UTF-8
  122. Codec ID                                 : S_TEXT/UTF8
  123. Codec ID/Info                            : UTF-8 Plain Text
  124. Duration                                 : 1 h 34 min
  125. Bit rate                                 : 46 b/s
  126. Frame rate                               : 0.193 FPS
  127. Count of elements                        : 1098
  128. Stream size                              : 32.3 KiB (0%)
  129. Title                                    : Dutch
  130. Language                                 : Dutch
  131. Default                                  : No
  132. Forced                                   : No
  133. Text #7
  134. ID                                       : 9
  135. Format                                   : UTF-8
  136. Codec ID                                 : S_TEXT/UTF8
  137. Codec ID/Info                            : UTF-8 Plain Text
  138. Duration                                 : 1 h 34 min
  139. Bit rate                                 : 75 b/s
  140. Frame rate                               : 0.308 FPS
  141. Count of elements                        : 1741
  142. Stream size                              : 52.0 KiB (0%)
  143. Title                                    : English [SDH]
  144. Language                                 : English
  145. Default                                  : No
  146. Forced                                   : No
  147. Text #8
  148. ID                                       : 10
  149. Format                                   : UTF-8
  150. Codec ID                                 : S_TEXT/UTF8
  151. Codec ID/Info                            : UTF-8 Plain Text
  152. Duration                                 : 36 s 917 ms
  153. Bit rate                                 : 52 b/s
  154. Frame rate                               : 0.217 FPS
  155. Count of elements                        : 8
  156. Stream size                              : 244 Bytes (0%)
  157. Title                                    : English [Forced]
  158. Language                                 : English
  159. Default                                  : No
  160. Forced                                   : Yes
  161. Text #9
  162. ID                                       : 11
  163. Format                                   : UTF-8
  164. Codec ID                                 : S_TEXT/UTF8
  165. Codec ID/Info                            : UTF-8 Plain Text
  166. Duration                                 : 1 h 28 min
  167. Bit rate                                 : 55 b/s
  168. Frame rate                               : 0.232 FPS
  169. Count of elements                        : 1233
  170. Stream size                              : 36.0 KiB (0%)
  171. Title                                    : English
  172. Language                                 : English
  173. Default                                  : No
  174. Forced                                   : No
  175. Text #10
  176. ID                                       : 12
  177. Format                                   : UTF-8
  178. Codec ID                                 : S_TEXT/UTF8
  179. Codec ID/Info                            : UTF-8 Plain Text
  180. Duration                                 : 1 h 34 min
  181. Bit rate                                 : 48 b/s
  182. Frame rate                               : 0.188 FPS
  183. Count of elements                        : 1071
  184. Stream size                              : 33.4 KiB (0%)
  185. Title                                    : Finnish
  186. Language                                 : Finnish
  187. Default                                  : No
  188. Forced                                   : No
  189. Text #11
  190. ID                                       : 13
  191. Format                                   : UTF-8
  192. Codec ID                                 : S_TEXT/UTF8
  193. Codec ID/Info                            : UTF-8 Plain Text
  194. Duration                                 : 1 h 34 min
  195. Bit rate                                 : 50 b/s
  196. Frame rate                               : 0.212 FPS
  197. Count of elements                        : 1207
  198. Stream size                              : 35.2 KiB (0%)
  199. Title                                    : French
  200. Language                                 : French
  201. Default                                  : No
  202. Forced                                   : No
  203. Text #12
  204. ID                                       : 14
  205. Format                                   : UTF-8
  206. Codec ID                                 : S_TEXT/UTF8
  207. Codec ID/Info                            : UTF-8 Plain Text
  208. Duration                                 : 1 h 34 min
  209. Bit rate                                 : 52 b/s
  210. Frame rate                               : 0.205 FPS
  211. Count of elements                        : 1168
  212. Stream size                              : 36.6 KiB (0%)
  213. Title                                    : German
  214. Language                                 : German
  215. Default                                  : No
  216. Forced                                   : No
  217. Text #13
  218. ID                                       : 15
  219. Format                                   : UTF-8
  220. Codec ID                                 : S_TEXT/UTF8
  221. Codec ID/Info                            : UTF-8 Plain Text
  222. Duration                                 : 1 h 34 min
  223. Bit rate                                 : 81 b/s
  224. Frame rate                               : 0.216 FPS
  225. Count of elements                        : 1226
  226. Stream size                              : 56.9 KiB (0%)
  227. Title                                    : Greek
  228. Language                                 : Greek
  229. Default                                  : No
  230. Forced                                   : No
  231. Text #14
  232. ID                                       : 16
  233. Format                                   : UTF-8
  234. Codec ID                                 : S_TEXT/UTF8
  235. Codec ID/Info                            : UTF-8 Plain Text
  236. Duration                                 : 1 h 34 min
  237. Bit rate                                 : 79 b/s
  238. Frame rate                               : 0.211 FPS
  239. Count of elements                        : 1201
  240. Stream size                              : 55.5 KiB (0%)
  241. Title                                    : Hebrew
  242. Language                                 : Hebrew
  243. Default                                  : No
  244. Forced                                   : No
  245. Text #15
  246. ID                                       : 17
  247. Format                                   : UTF-8
  248. Codec ID                                 : S_TEXT/UTF8
  249. Codec ID/Info                            : UTF-8 Plain Text
  250. Duration                                 : 1 h 34 min
  251. Bit rate                                 : 43 b/s
  252. Frame rate                               : 0.202 FPS
  253. Count of elements                        : 1150
  254. Stream size                              : 30.3 KiB (0%)
  255. Title                                    : Croatian
  256. Language                                 : Croatian
  257. Default                                  : No
  258. Forced                                   : No
  259. Text #16
  260. ID                                       : 18
  261. Format                                   : UTF-8
  262. Codec ID                                 : S_TEXT/UTF8
  263. Codec ID/Info                            : UTF-8 Plain Text
  264. Duration                                 : 1 h 34 min
  265. Bit rate                                 : 48 b/s
  266. Frame rate                               : 0.200 FPS
  267. Count of elements                        : 1135
  268. Stream size                              : 33.5 KiB (0%)
  269. Title                                    : Hungarian
  270. Language                                 : Hungarian
  271. Default                                  : No
  272. Forced                                   : No
  273. Text #17
  274. ID                                       : 19
  275. Format                                   : UTF-8
  276. Codec ID                                 : S_TEXT/UTF8
  277. Codec ID/Info                            : UTF-8 Plain Text
  278. Duration                                 : 1 h 34 min
  279. Bit rate                                 : 48 b/s
  280. Frame rate                               : 0.210 FPS
  281. Count of elements                        : 1193
  282. Stream size                              : 33.9 KiB (0%)
  283. Title                                    : Indonesian
  284. Language                                 : Indonesian
  285. Default                                  : No
  286. Forced                                   : No
  287. Text #18
  288. ID                                       : 20
  289. Format                                   : UTF-8
  290. Codec ID                                 : S_TEXT/UTF8
  291. Codec ID/Info                            : UTF-8 Plain Text
  292. Duration                                 : 1 h 34 min
  293. Bit rate                                 : 46 b/s
  294. Frame rate                               : 0.202 FPS
  295. Count of elements                        : 1146
  296. Stream size                              : 32.5 KiB (0%)
  297. Title                                    : Italian
  298. Language                                 : Italian
  299. Default                                  : No
  300. Forced                                   : No
  301. Text #19
  302. ID                                       : 21
  303. Format                                   : UTF-8
  304. Codec ID                                 : S_TEXT/UTF8
  305. Codec ID/Info                            : UTF-8 Plain Text
  306. Duration                                 : 1 h 34 min
  307. Bit rate                                 : 50 b/s
  308. Frame rate                               : 0.201 FPS
  309. Count of elements                        : 1141
  310. Stream size                              : 34.8 KiB (0%)
  311. Title                                    : Japanese
  312. Language                                 : Japanese
  313. Default                                  : No
  314. Forced                                   : No
  315. Text #20
  316. ID                                       : 22
  317. Format                                   : UTF-8
  318. Codec ID                                 : S_TEXT/UTF8
  319. Codec ID/Info                            : UTF-8 Plain Text
  320. Duration                                 : 1 h 34 min
  321. Bit rate                                 : 60 b/s
  322. Frame rate                               : 0.209 FPS
  323. Count of elements                        : 1190
  324. Stream size                              : 41.8 KiB (0%)
  325. Title                                    : Korean
  326. Language                                 : Korean
  327. Default                                  : No
  328. Forced                                   : No
  329. Text #21
  330. ID                                       : 23
  331. Format                                   : UTF-8
  332. Codec ID                                 : S_TEXT/UTF8
  333. Codec ID/Info                            : UTF-8 Plain Text
  334. Duration                                 : 1 h 34 min
  335. Bit rate                                 : 45 b/s
  336. Frame rate                               : 0.213 FPS
  337. Count of elements                        : 1212
  338. Stream size                              : 31.3 KiB (0%)
  339. Title                                    : Malay
  340. Language                                 : Malay
  341. Default                                  : No
  342. Forced                                   : No
  343. Text #22
  344. ID                                       : 24
  345. Format                                   : UTF-8
  346. Codec ID                                 : S_TEXT/UTF8
  347. Codec ID/Info                            : UTF-8 Plain Text
  348. Duration                                 : 1 h 34 min
  349. Bit rate                                 : 44 b/s
  350. Frame rate                               : 0.194 FPS
  351. Count of elements                        : 1101
  352. Stream size                              : 31.0 KiB (0%)
  353. Title                                    : Norwegian Bokmal
  354. Language                                 : Norwegian Bokmal
  355. Default                                  : No
  356. Forced                                   : No
  357. Text #23
  358. ID                                       : 25
  359. Format                                   : UTF-8
  360. Codec ID                                 : S_TEXT/UTF8
  361. Codec ID/Info                            : UTF-8 Plain Text
  362. Duration                                 : 1 h 34 min
  363. Bit rate                                 : 51 b/s
  364. Frame rate                               : 0.213 FPS
  365. Count of elements                        : 1212
  366. Stream size                              : 35.5 KiB (0%)
  367. Title                                    : Filipino
  368. Language                                 : phi
  369. Default                                  : No
  370. Forced                                   : No
  371. Text #24
  372. ID                                       : 26
  373. Format                                   : UTF-8
  374. Codec ID                                 : S_TEXT/UTF8
  375. Codec ID/Info                            : UTF-8 Plain Text
  376. Duration                                 : 1 h 34 min
  377. Bit rate                                 : 47 b/s
  378. Frame rate                               : 0.208 FPS
  379. Count of elements                        : 1183
  380. Stream size                              : 33.0 KiB (0%)
  381. Title                                    : Polish
  382. Language                                 : Polish
  383. Default                                  : No
  384. Forced                                   : No
  385. Text #25
  386. ID                                       : 27
  387. Format                                   : UTF-8
  388. Codec ID                                 : S_TEXT/UTF8
  389. Codec ID/Info                            : UTF-8 Plain Text
  390. Duration                                 : 1 h 28 min
  391. Bit rate                                 : 53 b/s
  392. Frame rate                               : 0.216 FPS
  393. Count of elements                        : 1143
  394. Stream size                              : 34.6 KiB (0%)
  395. Title                                    : Brazilian Portuguese
  396. Language                                 : Portuguese
  397. Default                                  : No
  398. Forced                                   : No
  399. Text #26
  400. ID                                       : 28
  401. Format                                   : UTF-8
  402. Codec ID                                 : S_TEXT/UTF8
  403. Codec ID/Info                            : UTF-8 Plain Text
  404. Duration                                 : 1 h 34 min
  405. Bit rate                                 : 47 b/s
  406. Frame rate                               : 0.217 FPS
  407. Count of elements                        : 1234
  408. Stream size                              : 33.1 KiB (0%)
  409. Title                                    : Portuguese
  410. Language                                 : Portuguese
  411. Default                                  : No
  412. Forced                                   : No
  413. Text #27
  414. ID                                       : 29
  415. Format                                   : UTF-8
  416. Codec ID                                 : S_TEXT/UTF8
  417. Codec ID/Info                            : UTF-8 Plain Text
  418. Duration                                 : 1 h 34 min
  419. Bit rate                                 : 51 b/s
  420. Frame rate                               : 0.205 FPS
  421. Count of elements                        : 1166
  422. Stream size                              : 35.9 KiB (0%)
  423. Title                                    : Romanian
  424. Language                                 : Romanian
  425. Default                                  : No
  426. Forced                                   : No
  427. Text #28
  428. ID                                       : 30
  429. Format                                   : UTF-8
  430. Codec ID                                 : S_TEXT/UTF8
  431. Codec ID/Info                            : UTF-8 Plain Text
  432. Duration                                 : 1 h 34 min
  433. Bit rate                                 : 81 b/s
  434. Frame rate                               : 0.207 FPS
  435. Count of elements                        : 1178
  436. Stream size                              : 56.7 KiB (0%)
  437. Title                                    : Russian
  438. Language                                 : Russian
  439. Default                                  : No
  440. Forced                                   : No
  441. Text #29
  442. ID                                       : 31
  443. Format                                   : UTF-8
  444. Codec ID                                 : S_TEXT/UTF8
  445. Codec ID/Info                            : UTF-8 Plain Text
  446. Duration                                 : 1 h 34 min
  447. Bit rate                                 : 48 b/s
  448. Frame rate                               : 0.207 FPS
  449. Count of elements                        : 1178
  450. Stream size                              : 33.7 KiB (0%)
  451. Title                                    : European Spanish
  452. Language                                 : Spanish
  453. Default                                  : No
  454. Forced                                   : No
  455. Text #30
  456. ID                                       : 32
  457. Format                                   : UTF-8
  458. Codec ID                                 : S_TEXT/UTF8
  459. Codec ID/Info                            : UTF-8 Plain Text
  460. Duration                                 : 1 h 34 min
  461. Bit rate                                 : 47 b/s
  462. Frame rate                               : 0.208 FPS
  463. Count of elements                        : 1183
  464. Stream size                              : 32.6 KiB (0%)
  465. Title                                    : Spanish
  466. Language                                 : Spanish
  467. Default                                  : No
  468. Forced                                   : No
  469. Text #31
  470. ID                                       : 33
  471. Format                                   : UTF-8
  472. Codec ID                                 : S_TEXT/UTF8
  473. Codec ID/Info                            : UTF-8 Plain Text
  474. Duration                                 : 1 h 34 min
  475. Bit rate                                 : 46 b/s
  476. Frame rate                               : 0.172 FPS
  477. Count of elements                        : 977
  478. Stream size                              : 32.2 KiB (0%)
  479. Title                                    : Swedish
  480. Language                                 : Swedish
  481. Default                                  : No
  482. Forced                                   : No
  483. Text #32
  484. ID                                       : 34
  485. Format                                   : UTF-8
  486. Codec ID                                 : S_TEXT/UTF8
  487. Codec ID/Info                            : UTF-8 Plain Text
  488. Duration                                 : 1 h 34 min
  489. Bit rate                                 : 135 b/s
  490. Frame rate                               : 0.213 FPS
  491. Count of elements                        : 1212
  492. Stream size                              : 94.1 KiB (0%)
  493. Title                                    : Thai
  494. Language                                 : Thai
  495. Default                                  : No
  496. Forced                                   : No
  497. Text #33
  498. ID                                       : 35
  499. Format                                   : UTF-8
  500. Codec ID                                 : S_TEXT/UTF8
  501. Codec ID/Info                            : UTF-8 Plain Text
  502. Duration                                 : 1 h 34 min
  503. Bit rate                                 : 49 b/s
  504. Frame rate                               : 0.212 FPS
  505. Count of elements                        : 1206
  506. Stream size                              : 34.4 KiB (0%)
  507. Title                                    : Turkish
  508. Language                                 : Turkish
  509. Default                                  : No
  510. Forced                                   : No
  511. Text #34
  512. ID                                       : 36
  513. Format                                   : UTF-8
  514. Codec ID                                 : S_TEXT/UTF8
  515. Codec ID/Info                            : UTF-8 Plain Text
  516. Duration                                 : 1 h 34 min
  517. Bit rate                                 : 71 b/s
  518. Frame rate                               : 0.213 FPS
  519. Count of elements                        : 1214
  520. Stream size                              : 49.9 KiB (0%)
  521. Title                                    : Ukrainian
  522. Language                                 : Ukrainian
  523. Default                                  : No
  524. Forced                                   : No
  525. Text #35
  526. ID                                       : 37
  527. Format                                   : UTF-8
  528. Codec ID                                 : S_TEXT/UTF8
  529. Codec ID/Info                            : UTF-8 Plain Text
  530. Duration                                 : 1 h 34 min
  531. Bit rate                                 : 68 b/s
  532. Frame rate                               : 0.213 FPS
  533. Count of elements                        : 1212
  534. Stream size                              : 47.8 KiB (0%)
  535. Title                                    : Vietnamese
  536. Language                                 : Vietnamese
  537. Default                                  : No
  538. Forced                                   : No
复制代码











回复

使用道具 举报

懒得打字嘛,点击右侧快捷回复 【右侧内容,后台自定义】
您需要登录后才可以回帖 登录 | 立即加入

本版积分规则

Archiver|小黑屋| 蓝光电影网 |网站地图

Copyright © 2021 Comsenz Inc. Powered by 蓝光电影网

蓝光电影网

本站内容由用户自主分享和转载自互联网,转载目的在于传递更多信息,并不代表本网赞同其观点和对其真实性负责。

如有侵权、违反国家法律政策行为,请联系我们,我们会第一时间及时清除和处理!

举报反馈邮箱:[email protected]

快速回复 返回顶部 返回列表