找回密码

蓝光电影网

查看: 33|回复: 0

[2160p-WEB] 寻找传家宝[中文字幕].Finding.Ohana.2021.2160p.NF.WEB-DL.DDP5.1.Atmos.DV.MKV.x265-CM 16.93GB

[复制链接]
蓝光币
1082
发表于 2023-1-10 16:18:18 | 显示全部楼层 |阅读模式


◎标  题 寻觅传家宝
◎译  名 'Ohana:寻觅传家宝(港 / 台)
◎片  名 Finding Ohana
◎年  代 2021
◎产  地 美国
◎类  别 家庭
◎语  言 英语
◎上映日期 2021-01-29(美国收集)
◎IMDb评分 6.1/10 (9145人评价)
◎IMDb链接 https://www.imdb.com/title/tt10332588/
◎豆瓣评分 5.7/10 (213人评价)
◎豆瓣链接 https://movie.douban.com/subject/35014675/
◎导  演 翁菲菲 Jude Weng
◎编  剧 克里斯蒂娜·斯特兰 Christina Strain
◎演  员 胡凯莉 Kelly Hu
       关继威 Jonathan Ke Quan
       克里斯·帕内尔 Chris Parnell
       马克·埃文·杰克逊 Marc Evan Jackson
       布兰斯康比·里奇蒙德 Branscombe Richmond
       欧文·瓦卡罗 Owen Vaccaro
       瑞奇·加西亚 Ricky Garcia
       Ryan Higa Ryan Higa
       亚历克斯·艾欧诺 Alex Aiono
       约瑟夫·特雷帕尼斯 Joseph Trapanese
◎标  签 冒险 / 美国 / 儿童 / 家庭 / 笑剧 / 美国电影 / 奇异 / Netflix
◎简  介
  两位布鲁克林长大的兄妹来到瓦胡岛乡下,他们发现一本记录了丢失已久的宝藏的日志,这个炎天变得冲动听心。两人与新朋友们踏上一场史诗般的冒险,并让他们重新熟悉了夏威夷人的文化和传统。
  1. Video
  2. ID                                       : 1
  3. Format                                   : HEVC
  4. Format/Info                              : High Efficiency Video Coding
  5. Format profile                           : Main [email protected]@Main
  6. HDR format                               : Dolby Vision, Version 1.0, dvhe.05.06, BL+RPU
  7. Codec ID                                 : V_MPEGH/ISO/HEVC
  8. Duration                                 : 2 h 3 min
  9. Bit rate                                 : 18.9 Mb/s
  10. Width                                    : 3 840 pixels
  11. Height                                   : 2 160 pixels
  12. Display aspect ratio                     : 16:9
  13. Frame rate mode                          : Constant
  14. Frame rate                               : 24.000 FPS
  15. Color space                              : YUV
  16. Chroma subsampling                       : 4:2:0
  17. Bit depth                                : 10 bits
  18. Bits/(Pixel*Frame)                       : 0.095
  19. Stream size                              : 16.3 GiB (96%)
  20. Default                                  : Yes
  21. Forced                                   : No
  22. Color range                              : Full
  23. Audio
  24. ID                                       : 2
  25. Format                                   : E-AC-3 JOC
  26. Format/Info                              : Enhanced AC-3 with Joint Object Coding
  27. Commercial name                          : Dolby Digital Plus with Dolby Atmos
  28. Codec ID                                 : A_EAC3
  29. Duration                                 : 2 h 3 min
  30. Bit rate mode                            : Constant
  31. Bit rate                                 : 768 kb/s
  32. Channel(s)                               : 6 channels
  33. Channel layout                           : L R C LFE Ls Rs
  34. Sampling rate                            : 48.0 kHz
  35. Frame rate                               : 31.250 FPS (1536 SPF)
  36. Compression mode                         : Lossy
  37. Stream size                              : 677 MiB (4%)
  38. Title                                    : English
  39. Language                                 : English
  40. Service kind                             : Complete Main
  41. Default                                  : No
  42. Forced                                   : No
  43. Complexity index                         : 16
  44. Number of dynamic objects                : 15
  45. Bed channel count                        : 1 channel
  46. Bed channel configuration                : LFE
  47. Text #1
  48. ID                                       : 3
  49. Format                                   : UTF-8
  50. Codec ID                                 : S_TEXT/UTF8
  51. Codec ID/Info                            : UTF-8 Plain Text
  52. Duration                                 : 1 h 52 min
  53. Bit rate                                 : 108 b/s
  54. Frame rate                               : 0.228 FPS
  55. Count of elements                        : 1542
  56. Stream size                              : 89.5 KiB (0%)
  57. Title                                    : Arabic
  58. Language                                 : Arabic
  59. Default                                  : No
  60. Forced                                   : No
  61. Text #2
  62. ID                                       : 4
  63. Format                                   : UTF-8
  64. Codec ID                                 : S_TEXT/UTF8
  65. Codec ID/Info                            : UTF-8 Plain Text
  66. Duration                                 : 1 h 59 min
  67. Bit rate                                 : 63 b/s
  68. Frame rate                               : 0.216 FPS
  69. Count of elements                        : 1551
  70. Stream size                              : 55.4 KiB (0%)
  71. Title                                    : Chinese Simplified
  72. Language                                 : Chinese
  73. Default                                  : No
  74. Forced                                   : No
  75. Text #3
  76. ID                                       : 5
  77. Format                                   : UTF-8
  78. Codec ID                                 : S_TEXT/UTF8
  79. Codec ID/Info                            : UTF-8 Plain Text
  80. Duration                                 : 1 h 52 min
  81. Bit rate                                 : 68 b/s
  82. Frame rate                               : 0.228 FPS
  83. Count of elements                        : 1548
  84. Stream size                              : 56.4 KiB (0%)
  85. Title                                    : Chinese Traditional
  86. Language                                 : Chinese
  87. Default                                  : No
  88. Forced                                   : No
  89. Text #4
  90. ID                                       : 6
  91. Format                                   : UTF-8
  92. Codec ID                                 : S_TEXT/UTF8
  93. Codec ID/Info                            : UTF-8 Plain Text
  94. Duration                                 : 1 h 59 min
  95. Bit rate                                 : 50 b/s
  96. Frame rate                               : 0.224 FPS
  97. Count of elements                        : 1613
  98. Stream size                              : 44.3 KiB (0%)
  99. Title                                    : Czech
  100. Language                                 : Czech
  101. Default                                  : No
  102. Forced                                   : No
  103. Text #5
  104. ID                                       : 7
  105. Format                                   : UTF-8
  106. Codec ID                                 : S_TEXT/UTF8
  107. Codec ID/Info                            : UTF-8 Plain Text
  108. Duration                                 : 1 h 59 min
  109. Bit rate                                 : 49 b/s
  110. Frame rate                               : 0.201 FPS
  111. Count of elements                        : 1447
  112. Stream size                              : 43.0 KiB (0%)
  113. Title                                    : Danish
  114. Language                                 : Danish
  115. Default                                  : No
  116. Forced                                   : No
  117. Text #6
  118. ID                                       : 8
  119. Format                                   : UTF-8
  120. Codec ID                                 : S_TEXT/UTF8
  121. Codec ID/Info                            : UTF-8 Plain Text
  122. Duration                                 : 1 h 59 min
  123. Bit rate                                 : 51 b/s
  124. Frame rate                               : 0.182 FPS
  125. Count of elements                        : 1304
  126. Stream size                              : 45.2 KiB (0%)
  127. Title                                    : Dutch
  128. Language                                 : Dutch
  129. Default                                  : No
  130. Forced                                   : No
  131. Text #7
  132. ID                                       : 9
  133. Format                                   : UTF-8
  134. Codec ID                                 : S_TEXT/UTF8
  135. Codec ID/Info                            : UTF-8 Plain Text
  136. Duration                                 : 1 h 59 min
  137. Bit rate                                 : 64 b/s
  138. Frame rate                               : 0.256 FPS
  139. Count of elements                        : 1839
  140. Stream size                              : 56.7 KiB (0%)
  141. Title                                    : English [SDH]
  142. Language                                 : English
  143. Default                                  : No
  144. Forced                                   : No
  145. Text #8
  146. ID                                       : 10
  147. Format                                   : UTF-8
  148. Codec ID                                 : S_TEXT/UTF8
  149. Codec ID/Info                            : UTF-8 Plain Text
  150. Duration                                 : 1 h 44 min
  151. Bit rate                                 : 0 b/s
  152. Frame rate                               : 0.004 FPS
  153. Count of elements                        : 24
  154. Stream size                              : 551 Bytes (0%)
  155. Title                                    : English [Forced]
  156. Language                                 : English
  157. Default                                  : No
  158. Forced                                   : Yes
  159. Text #9
  160. ID                                       : 11
  161. Format                                   : UTF-8
  162. Codec ID                                 : S_TEXT/UTF8
  163. Codec ID/Info                            : UTF-8 Plain Text
  164. Duration                                 : 1 h 54 min
  165. Bit rate                                 : 57 b/s
  166. Frame rate                               : 0.230 FPS
  167. Count of elements                        : 1576
  168. Stream size                              : 47.8 KiB (0%)
  169. Title                                    : English
  170. Language                                 : English
  171. Default                                  : No
  172. Forced                                   : No
  173. Text #10
  174. ID                                       : 12
  175. Format                                   : UTF-8
  176. Codec ID                                 : S_TEXT/UTF8
  177. Codec ID/Info                            : UTF-8 Plain Text
  178. Duration                                 : 1 h 59 min
  179. Bit rate                                 : 52 b/s
  180. Frame rate                               : 0.199 FPS
  181. Count of elements                        : 1433
  182. Stream size                              : 46.0 KiB (0%)
  183. Title                                    : Finnish
  184. Language                                 : Finnish
  185. Default                                  : No
  186. Forced                                   : No
  187. Text #11
  188. ID                                       : 13
  189. Format                                   : UTF-8
  190. Codec ID                                 : S_TEXT/UTF8
  191. Codec ID/Info                            : UTF-8 Plain Text
  192. Duration                                 : 1 h 59 min
  193. Bit rate                                 : 71 b/s
  194. Frame rate                               : 0.256 FPS
  195. Count of elements                        : 1829
  196. Stream size                              : 62.1 KiB (0%)
  197. Title                                    : French [SDH]
  198. Language                                 : French
  199. Default                                  : No
  200. Forced                                   : No
  201. Text #12
  202. ID                                       : 14
  203. Format                                   : UTF-8
  204. Codec ID                                 : S_TEXT/UTF8
  205. Codec ID/Info                            : UTF-8 Plain Text
  206. Duration                                 : 1 h 52 min
  207. Bit rate                                 : 67 b/s
  208. Frame rate                               : 0.243 FPS
  209. Count of elements                        : 1647
  210. Stream size                              : 55.7 KiB (0%)
  211. Title                                    : French
  212. Language                                 : French
  213. Default                                  : No
  214. Forced                                   : No
  215. Text #13
  216. ID                                       : 15
  217. Format                                   : UTF-8
  218. Codec ID                                 : S_TEXT/UTF8
  219. Codec ID/Info                            : UTF-8 Plain Text
  220. Duration                                 : 1 h 59 min
  221. Bit rate                                 : 72 b/s
  222. Frame rate                               : 0.274 FPS
  223. Count of elements                        : 1959
  224. Stream size                              : 63.5 KiB (0%)
  225. Title                                    : German [SDH]
  226. Language                                 : German
  227. Default                                  : No
  228. Forced                                   : No
  229. Text #14
  230. ID                                       : 16
  231. Format                                   : UTF-8
  232. Codec ID                                 : S_TEXT/UTF8
  233. Codec ID/Info                            : UTF-8 Plain Text
  234. Duration                                 : 1 h 54 min
  235. Bit rate                                 : 63 b/s
  236. Frame rate                               : 0.237 FPS
  237. Count of elements                        : 1632
  238. Stream size                              : 53.5 KiB (0%)
  239. Title                                    : German
  240. Language                                 : German
  241. Default                                  : No
  242. Forced                                   : No
  243. Text #15
  244. ID                                       : 17
  245. Format                                   : UTF-8
  246. Codec ID                                 : S_TEXT/UTF8
  247. Codec ID/Info                            : UTF-8 Plain Text
  248. Duration                                 : 1 h 59 min
  249. Bit rate                                 : 85 b/s
  250. Frame rate                               : 0.233 FPS
  251. Count of elements                        : 1671
  252. Stream size                              : 75.0 KiB (0%)
  253. Title                                    : Greek
  254. Language                                 : Greek
  255. Default                                  : No
  256. Forced                                   : No
  257. Text #16
  258. ID                                       : 18
  259. Format                                   : UTF-8
  260. Codec ID                                 : S_TEXT/UTF8
  261. Codec ID/Info                            : UTF-8 Plain Text
  262. Duration                                 : 1 h 59 min
  263. Bit rate                                 : 87 b/s
  264. Frame rate                               : 0.214 FPS
  265. Count of elements                        : 1540
  266. Stream size                              : 76.7 KiB (0%)
  267. Title                                    : Hebrew
  268. Language                                 : Hebrew
  269. Default                                  : No
  270. Forced                                   : No
  271. Text #17
  272. ID                                       : 19
  273. Format                                   : UTF-8
  274. Codec ID                                 : S_TEXT/UTF8
  275. Codec ID/Info                            : UTF-8 Plain Text
  276. Duration                                 : 1 h 59 min
  277. Bit rate                                 : 47 b/s
  278. Frame rate                               : 0.211 FPS
  279. Count of elements                        : 1514
  280. Stream size                              : 41.7 KiB (0%)
  281. Title                                    : Croatian
  282. Language                                 : Croatian
  283. Default                                  : No
  284. Forced                                   : No
  285. Text #18
  286. ID                                       : 20
  287. Format                                   : UTF-8
  288. Codec ID                                 : S_TEXT/UTF8
  289. Codec ID/Info                            : UTF-8 Plain Text
  290. Duration                                 : 1 h 59 min
  291. Bit rate                                 : 53 b/s
  292. Frame rate                               : 0.203 FPS
  293. Count of elements                        : 1460
  294. Stream size                              : 47.3 KiB (0%)
  295. Title                                    : Hungarian
  296. Language                                 : Hungarian
  297. Default                                  : No
  298. Forced                                   : No
  299. Text #19
  300. ID                                       : 21
  301. Format                                   : UTF-8
  302. Codec ID                                 : S_TEXT/UTF8
  303. Codec ID/Info                            : UTF-8 Plain Text
  304. Duration                                 : 1 h 59 min
  305. Bit rate                                 : 49 b/s
  306. Frame rate                               : 0.214 FPS
  307. Count of elements                        : 1539
  308. Stream size                              : 43.4 KiB (0%)
  309. Title                                    : Indonesian
  310. Language                                 : Indonesian
  311. Default                                  : No
  312. Forced                                   : No
  313. Text #20
  314. ID                                       : 22
  315. Format                                   : UTF-8
  316. Codec ID                                 : S_TEXT/UTF8
  317. Codec ID/Info                            : UTF-8 Plain Text
  318. Duration                                 : 1 h 59 min
  319. Bit rate                                 : 66 b/s
  320. Frame rate                               : 0.249 FPS
  321. Count of elements                        : 1781
  322. Stream size                              : 58.1 KiB (0%)
  323. Title                                    : Italian [SDH]
  324. Language                                 : Italian
  325. Default                                  : No
  326. Forced                                   : No
  327. Text #21
  328. ID                                       : 23
  329. Format                                   : UTF-8
  330. Codec ID                                 : S_TEXT/UTF8
  331. Codec ID/Info                            : UTF-8 Plain Text
  332. Duration                                 : 1 h 54 min
  333. Bit rate                                 : 61 b/s
  334. Frame rate                               : 0.234 FPS
  335. Count of elements                        : 1604
  336. Stream size                              : 51.6 KiB (0%)
  337. Title                                    : Italian
  338. Language                                 : Italian
  339. Default                                  : No
  340. Forced                                   : No
  341. Text #22
  342. ID                                       : 24
  343. Format                                   : UTF-8
  344. Codec ID                                 : S_TEXT/UTF8
  345. Codec ID/Info                            : UTF-8 Plain Text
  346. Duration                                 : 1 h 59 min
  347. Bit rate                                 : 48 b/s
  348. Frame rate                               : 0.223 FPS
  349. Count of elements                        : 1603
  350. Stream size                              : 42.4 KiB (0%)
  351. Title                                    : Japanese
  352. Language                                 : Japanese
  353. Default                                  : No
  354. Forced                                   : No
  355. Text #23
  356. ID                                       : 25
  357. Format                                   : UTF-8
  358. Codec ID                                 : S_TEXT/UTF8
  359. Codec ID/Info                            : UTF-8 Plain Text
  360. Duration                                 : 1 h 59 min
  361. Bit rate                                 : 68 b/s
  362. Frame rate                               : 0.222 FPS
  363. Count of elements                        : 1594
  364. Stream size                              : 60.1 KiB (0%)
  365. Title                                    : Korean
  366. Language                                 : Korean
  367. Default                                  : No
  368. Forced                                   : No
  369. Text #24
  370. ID                                       : 26
  371. Format                                   : UTF-8
  372. Codec ID                                 : S_TEXT/UTF8
  373. Codec ID/Info                            : UTF-8 Plain Text
  374. Duration                                 : 1 h 59 min
  375. Bit rate                                 : 48 b/s
  376. Frame rate                               : 0.215 FPS
  377. Count of elements                        : 1543
  378. Stream size                              : 42.9 KiB (0%)
  379. Title                                    : Malay
  380. Language                                 : Malay
  381. Default                                  : No
  382. Forced                                   : No
  383. Text #25
  384. ID                                       : 27
  385. Format                                   : UTF-8
  386. Codec ID                                 : S_TEXT/UTF8
  387. Codec ID/Info                            : UTF-8 Plain Text
  388. Duration                                 : 1 h 59 min
  389. Bit rate                                 : 45 b/s
  390. Frame rate                               : 0.197 FPS
  391. Count of elements                        : 1418
  392. Stream size                              : 39.9 KiB (0%)
  393. Title                                    : Norwegian Bokmal
  394. Language                                 : Norwegian Bokmal
  395. Default                                  : No
  396. Forced                                   : No
  397. Text #26
  398. ID                                       : 28
  399. Format                                   : UTF-8
  400. Codec ID                                 : S_TEXT/UTF8
  401. Codec ID/Info                            : UTF-8 Plain Text
  402. Duration                                 : 1 h 59 min
  403. Bit rate                                 : 49 b/s
  404. Frame rate                               : 0.215 FPS
  405. Count of elements                        : 1541
  406. Stream size                              : 43.8 KiB (0%)
  407. Title                                    : Filipino
  408. Language                                 : phi
  409. Default                                  : No
  410. Forced                                   : No
  411. Text #27
  412. ID                                       : 29
  413. Format                                   : UTF-8
  414. Codec ID                                 : S_TEXT/UTF8
  415. Codec ID/Info                            : UTF-8 Plain Text
  416. Duration                                 : 1 h 59 min
  417. Bit rate                                 : 49 b/s
  418. Frame rate                               : 0.211 FPS
  419. Count of elements                        : 1519
  420. Stream size                              : 43.8 KiB (0%)
  421. Title                                    : Polish
  422. Language                                 : Polish
  423. Default                                  : No
  424. Forced                                   : No
  425. Text #28
  426. ID                                       : 30
  427. Format                                   : UTF-8
  428. Codec ID                                 : S_TEXT/UTF8
  429. Codec ID/Info                            : UTF-8 Plain Text
  430. Duration                                 : 1 h 58 min
  431. Bit rate                                 : 64 b/s
  432. Frame rate                               : 0.248 FPS
  433. Count of elements                        : 1765
  434. Stream size                              : 56.4 KiB (0%)
  435. Title                                    : Brazilian Portuguese [SDH]
  436. Language                                 : Portuguese
  437. Default                                  : No
  438. Forced                                   : No
  439. Text #29
  440. ID                                       : 31
  441. Format                                   : UTF-8
  442. Codec ID                                 : S_TEXT/UTF8
  443. Codec ID/Info                            : UTF-8 Plain Text
  444. Duration                                 : 1 h 52 min
  445. Bit rate                                 : 62 b/s
  446. Frame rate                               : 0.242 FPS
  447. Count of elements                        : 1632
  448. Stream size                              : 51.6 KiB (0%)
  449. Title                                    : Brazilian Portuguese
  450. Language                                 : Portuguese
  451. Default                                  : No
  452. Forced                                   : No
  453. Text #30
  454. ID                                       : 32
  455. Format                                   : UTF-8
  456. Codec ID                                 : S_TEXT/UTF8
  457. Codec ID/Info                            : UTF-8 Plain Text
  458. Duration                                 : 1 h 59 min
  459. Bit rate                                 : 49 b/s
  460. Frame rate                               : 0.210 FPS
  461. Count of elements                        : 1506
  462. Stream size                              : 43.7 KiB (0%)
  463. Title                                    : Portuguese
  464. Language                                 : Portuguese
  465. Default                                  : No
  466. Forced                                   : No
  467. Text #31
  468. ID                                       : 33
  469. Format                                   : UTF-8
  470. Codec ID                                 : S_TEXT/UTF8
  471. Codec ID/Info                            : UTF-8 Plain Text
  472. Duration                                 : 1 h 59 min
  473. Bit rate                                 : 59 b/s
  474. Frame rate                               : 0.213 FPS
  475. Count of elements                        : 1533
  476. Stream size                              : 51.8 KiB (0%)
  477. Title                                    : Romanian
  478. Language                                 : Romanian
  479. Default                                  : No
  480. Forced                                   : No
  481. Text #32
  482. ID                                       : 34
  483. Format                                   : UTF-8
  484. Codec ID                                 : S_TEXT/UTF8
  485. Codec ID/Info                            : UTF-8 Plain Text
  486. Duration                                 : 1 h 59 min
  487. Bit rate                                 : 85 b/s
  488. Frame rate                               : 0.218 FPS
  489. Count of elements                        : 1565
  490. Stream size                              : 74.7 KiB (0%)
  491. Title                                    : Russian
  492. Language                                 : Russian
  493. Default                                  : No
  494. Forced                                   : No
  495. Text #33
  496. ID                                       : 35
  497. Format                                   : UTF-8
  498. Codec ID                                 : S_TEXT/UTF8
  499. Codec ID/Info                            : UTF-8 Plain Text
  500. Duration                                 : 1 h 59 min
  501. Bit rate                                 : 49 b/s
  502. Frame rate                               : 0.218 FPS
  503. Count of elements                        : 1569
  504. Stream size                              : 43.1 KiB (0%)
  505. Title                                    : European Spanish
  506. Language                                 : Spanish
  507. Default                                  : No
  508. Forced                                   : No
  509. Text #34
  510. ID                                       : 36
  511. Format                                   : UTF-8
  512. Codec ID                                 : S_TEXT/UTF8
  513. Codec ID/Info                            : UTF-8 Plain Text
  514. Duration                                 : 2 h 0 min
  515. Bit rate                                 : 65 b/s
  516. Frame rate                               : 0.248 FPS
  517. Count of elements                        : 1787
  518. Stream size                              : 57.6 KiB (0%)
  519. Title                                    : Spanish [SDH]
  520. Language                                 : Spanish
  521. Default                                  : No
  522. Forced                                   : No
  523. Text #35
  524. ID                                       : 37
  525. Format                                   : UTF-8
  526. Codec ID                                 : S_TEXT/UTF8
  527. Codec ID/Info                            : UTF-8 Plain Text
  528. Duration                                 : 1 h 59 min
  529. Bit rate                                 : 57 b/s
  530. Frame rate                               : 0.217 FPS
  531. Count of elements                        : 1562
  532. Stream size                              : 50.1 KiB (0%)
  533. Title                                    : Spanish
  534. Language                                 : Spanish
  535. Default                                  : No
  536. Forced                                   : No
  537. Text #36
  538. ID                                       : 38
  539. Format                                   : UTF-8
  540. Codec ID                                 : S_TEXT/UTF8
  541. Codec ID/Info                            : UTF-8 Plain Text
  542. Duration                                 : 1 h 59 min
  543. Bit rate                                 : 51 b/s
  544. Frame rate                               : 0.193 FPS
  545. Count of elements                        : 1389
  546. Stream size                              : 44.9 KiB (0%)
  547. Title                                    : Swedish
  548. Language                                 : Swedish
  549. Default                                  : No
  550. Forced                                   : No
  551. Text #37
  552. ID                                       : 39
  553. Format                                   : UTF-8
  554. Codec ID                                 : S_TEXT/UTF8
  555. Codec ID/Info                            : UTF-8 Plain Text
  556. Duration                                 : 1 h 59 min
  557. Bit rate                                 : 142 b/s
  558. Frame rate                               : 0.216 FPS
  559. Count of elements                        : 1549
  560. Stream size                              : 125 KiB (0%)
  561. Title                                    : Thai
  562. Language                                 : Thai
  563. Default                                  : No
  564. Forced                                   : No
  565. Text #38
  566. ID                                       : 40
  567. Format                                   : UTF-8
  568. Codec ID                                 : S_TEXT/UTF8
  569. Codec ID/Info                            : UTF-8 Plain Text
  570. Duration                                 : 1 h 59 min
  571. Bit rate                                 : 51 b/s
  572. Frame rate                               : 0.215 FPS
  573. Count of elements                        : 1541
  574. Stream size                              : 45.5 KiB (0%)
  575. Title                                    : Turkish
  576. Language                                 : Turkish
  577. Default                                  : No
  578. Forced                                   : No
  579. Text #39
  580. ID                                       : 41
  581. Format                                   : UTF-8
  582. Codec ID                                 : S_TEXT/UTF8
  583. Codec ID/Info                            : UTF-8 Plain Text
  584. Duration                                 : 1 h 59 min
  585. Bit rate                                 : 78 b/s
  586. Frame rate                               : 0.217 FPS
  587. Count of elements                        : 1560
  588. Stream size                              : 69.2 KiB (0%)
  589. Title                                    : Ukrainian
  590. Language                                 : Ukrainian
  591. Default                                  : No
  592. Forced                                   : No
  593. Text #40
  594. ID                                       : 42
  595. Format                                   : UTF-8
  596. Codec ID                                 : S_TEXT/UTF8
  597. Codec ID/Info                            : UTF-8 Plain Text
  598. Duration                                 : 1 h 59 min
  599. Bit rate                                 : 73 b/s
  600. Frame rate                               : 0.208 FPS
  601. Count of elements                        : 1493
  602. Stream size                              : 64.4 KiB (0%)
  603. Title                                    : Vietnamese
  604. Language                                 : Vietnamese
  605. Default                                  : No
  606. Forced                                   : No
复制代码











回复

使用道具 举报

懒得打字嘛,点击右侧快捷回复 【右侧内容,后台自定义】
您需要登录后才可以回帖 登录 | 立即加入

本版积分规则

Archiver|小黑屋| 蓝光电影网 |网站地图

Copyright © 2021 Comsenz Inc. Powered by 蓝光电影网

蓝光电影网

本站内容由用户自主分享和转载自互联网,转载目的在于传递更多信息,并不代表本网赞同其观点和对其真实性负责。

如有侵权、违反国家法律政策行为,请联系我们,我们会第一时间及时清除和处理!

举报反馈邮箱:[email protected]

快速回复 返回顶部 返回列表