找回密码

蓝光电影网

查看: 45|回复: 1

[2160p-WEB] 寻找传家宝[中文字幕].Finding.Ohana.2021.2160p.NF.WEB-DL.x265.10bit.HDR.DDP5.1.Atmos-CM 16.68GB

[复制链接]
蓝光币
1078
发表于 2023-1-10 16:18:19 | 显示全部楼层 |阅读模式


◎标  题 寻觅传家宝
◎译  名 'Ohana:寻觅传家宝(港 / 台)
◎片  名 Finding Ohana
◎年  代 2021
◎产  地 美国
◎类  别 家庭
◎语  言 英语
◎上映日期 2021-01-29(美国收集)
◎IMDb评分 6.1/10 (9145人评价)
◎IMDb链接 https://www.imdb.com/title/tt10332588/
◎豆瓣评分 5.7/10 (213人评价)
◎豆瓣链接 https://movie.douban.com/subject/35014675/
◎导  演 翁菲菲 Jude Weng
◎编  剧 克里斯蒂娜·斯特兰 Christina Strain
◎演  员 胡凯莉 Kelly Hu
       关继威 Jonathan Ke Quan
       克里斯·帕内尔 Chris Parnell
       马克·埃文·杰克逊 Marc Evan Jackson
       布兰斯康比·里奇蒙德 Branscombe Richmond
       欧文·瓦卡罗 Owen Vaccaro
       瑞奇·加西亚 Ricky Garcia
       Ryan Higa Ryan Higa
       亚历克斯·艾欧诺 Alex Aiono
       约瑟夫·特雷帕尼斯 Joseph Trapanese
◎标  签 冒险 / 美国 / 儿童 / 家庭 / 笑剧 / 美国电影 / 奇异 / Netflix
◎简  介
  两位布鲁克林长大的兄妹来到瓦胡岛乡下,他们发现一本记录了丢失已久的宝藏的日志,这个炎天变得冲动听心。两人与新朋友们踏上一场史诗般的冒险,并让他们重新熟悉了夏威夷人的文化和传统。
  1. Video
  2. ID                                       : 1
  3. Format                                   : HEVC
  4. Format/Info                              : High Efficiency Video Coding
  5. Format profile                           : Main [email protected]@Main
  6. HDR format                               : SMPTE ST 2086, HDR10 compatible
  7. Codec ID                                 : V_MPEGH/ISO/HEVC
  8. Duration                                 : 2 h 0 min
  9. Bit rate                                 : 19.1 Mb/s
  10. Width                                    : 3 840 pixels
  11. Height                                   : 2 160 pixels
  12. Display aspect ratio                     : 16:9
  13. Frame rate mode                          : Constant
  14. Frame rate                               : 24.000 FPS
  15. Color space                              : YUV
  16. Chroma subsampling                       : 4:2:0 (Type 2)
  17. Bit depth                                : 10 bits
  18. Bits/(Pixel*Frame)                       : 0.096
  19. Stream size                              : 16.0 GiB (96%)
  20. Default                                  : Yes
  21. Forced                                   : No
  22. Color range                              : Limited
  23. Color primaries                          : BT.2020
  24. Transfer characteristics                 : PQ
  25. Matrix coefficients                      : BT.2020 non-constant
  26. Mastering display color primaries        : Display P3
  27. Mastering display luminance              : min: 0.0001 cd/m2, max: 1000 cd/m2
  28. Maximum Content Light Level              : 1015 cd/m2
  29. Maximum Frame-Average Light Level        : 241 cd/m2
  30. Audio
  31. ID                                       : 2
  32. Format                                   : E-AC-3 JOC
  33. Format/Info                              : Enhanced AC-3 with Joint Object Coding
  34. Commercial name                          : Dolby Digital Plus with Dolby Atmos
  35. Codec ID                                 : A_EAC3
  36. Duration                                 : 2 h 3 min
  37. Bit rate mode                            : Constant
  38. Bit rate                                 : 768 kb/s
  39. Channel(s)                               : 6 channels
  40. Channel layout                           : L R C LFE Ls Rs
  41. Sampling rate                            : 48.0 kHz
  42. Frame rate                               : 31.250 FPS (1536 SPF)
  43. Compression mode                         : Lossy
  44. Stream size                              : 677 MiB (4%)
  45. Title                                    : English
  46. Language                                 : English
  47. Service kind                             : Complete Main
  48. Default                                  : No
  49. Forced                                   : No
  50. Complexity index                         : 16
  51. Number of dynamic objects                : 15
  52. Bed channel count                        : 1 channel
  53. Bed channel configuration                : LFE
  54. Text #1
  55. ID                                       : 3
  56. Format                                   : UTF-8
  57. Codec ID                                 : S_TEXT/UTF8
  58. Codec ID/Info                            : UTF-8 Plain Text
  59. Duration                                 : 1 h 52 min
  60. Bit rate                                 : 108 b/s
  61. Frame rate                               : 0.228 FPS
  62. Count of elements                        : 1542
  63. Stream size                              : 89.5 KiB (0%)
  64. Title                                    : Arabic
  65. Language                                 : Arabic
  66. Default                                  : No
  67. Forced                                   : No
  68. Text #2
  69. ID                                       : 4
  70. Format                                   : UTF-8
  71. Codec ID                                 : S_TEXT/UTF8
  72. Codec ID/Info                            : UTF-8 Plain Text
  73. Duration                                 : 1 h 59 min
  74. Bit rate                                 : 63 b/s
  75. Frame rate                               : 0.216 FPS
  76. Count of elements                        : 1551
  77. Stream size                              : 55.4 KiB (0%)
  78. Title                                    : Chinese Simplified
  79. Language                                 : Chinese
  80. Default                                  : No
  81. Forced                                   : No
  82. Text #3
  83. ID                                       : 5
  84. Format                                   : UTF-8
  85. Codec ID                                 : S_TEXT/UTF8
  86. Codec ID/Info                            : UTF-8 Plain Text
  87. Duration                                 : 1 h 52 min
  88. Bit rate                                 : 68 b/s
  89. Frame rate                               : 0.228 FPS
  90. Count of elements                        : 1548
  91. Stream size                              : 56.4 KiB (0%)
  92. Title                                    : Chinese Traditional
  93. Language                                 : Chinese
  94. Default                                  : No
  95. Forced                                   : No
  96. Text #4
  97. ID                                       : 6
  98. Format                                   : UTF-8
  99. Codec ID                                 : S_TEXT/UTF8
  100. Codec ID/Info                            : UTF-8 Plain Text
  101. Duration                                 : 1 h 59 min
  102. Bit rate                                 : 50 b/s
  103. Frame rate                               : 0.224 FPS
  104. Count of elements                        : 1613
  105. Stream size                              : 44.3 KiB (0%)
  106. Title                                    : Czech
  107. Language                                 : Czech
  108. Default                                  : No
  109. Forced                                   : No
  110. Text #5
  111. ID                                       : 7
  112. Format                                   : UTF-8
  113. Codec ID                                 : S_TEXT/UTF8
  114. Codec ID/Info                            : UTF-8 Plain Text
  115. Duration                                 : 1 h 59 min
  116. Bit rate                                 : 49 b/s
  117. Frame rate                               : 0.201 FPS
  118. Count of elements                        : 1447
  119. Stream size                              : 43.0 KiB (0%)
  120. Title                                    : Danish
  121. Language                                 : Danish
  122. Default                                  : No
  123. Forced                                   : No
  124. Text #6
  125. ID                                       : 8
  126. Format                                   : UTF-8
  127. Codec ID                                 : S_TEXT/UTF8
  128. Codec ID/Info                            : UTF-8 Plain Text
  129. Duration                                 : 1 h 59 min
  130. Bit rate                                 : 51 b/s
  131. Frame rate                               : 0.182 FPS
  132. Count of elements                        : 1304
  133. Stream size                              : 45.2 KiB (0%)
  134. Title                                    : Dutch
  135. Language                                 : Dutch
  136. Default                                  : No
  137. Forced                                   : No
  138. Text #7
  139. ID                                       : 9
  140. Format                                   : UTF-8
  141. Codec ID                                 : S_TEXT/UTF8
  142. Codec ID/Info                            : UTF-8 Plain Text
  143. Duration                                 : 1 h 59 min
  144. Bit rate                                 : 64 b/s
  145. Frame rate                               : 0.256 FPS
  146. Count of elements                        : 1839
  147. Stream size                              : 56.7 KiB (0%)
  148. Title                                    : English [SDH]
  149. Language                                 : English
  150. Default                                  : No
  151. Forced                                   : No
  152. Text #8
  153. ID                                       : 10
  154. Format                                   : UTF-8
  155. Codec ID                                 : S_TEXT/UTF8
  156. Codec ID/Info                            : UTF-8 Plain Text
  157. Duration                                 : 1 h 44 min
  158. Bit rate                                 : 0 b/s
  159. Frame rate                               : 0.004 FPS
  160. Count of elements                        : 24
  161. Stream size                              : 551 Bytes (0%)
  162. Title                                    : English [Forced]
  163. Language                                 : English
  164. Default                                  : No
  165. Forced                                   : Yes
  166. Text #9
  167. ID                                       : 11
  168. Format                                   : UTF-8
  169. Codec ID                                 : S_TEXT/UTF8
  170. Codec ID/Info                            : UTF-8 Plain Text
  171. Duration                                 : 1 h 54 min
  172. Bit rate                                 : 57 b/s
  173. Frame rate                               : 0.230 FPS
  174. Count of elements                        : 1576
  175. Stream size                              : 47.8 KiB (0%)
  176. Title                                    : English
  177. Language                                 : English
  178. Default                                  : No
  179. Forced                                   : No
  180. Text #10
  181. ID                                       : 12
  182. Format                                   : UTF-8
  183. Codec ID                                 : S_TEXT/UTF8
  184. Codec ID/Info                            : UTF-8 Plain Text
  185. Duration                                 : 1 h 59 min
  186. Bit rate                                 : 52 b/s
  187. Frame rate                               : 0.199 FPS
  188. Count of elements                        : 1433
  189. Stream size                              : 46.0 KiB (0%)
  190. Title                                    : Finnish
  191. Language                                 : Finnish
  192. Default                                  : No
  193. Forced                                   : No
  194. Text #11
  195. ID                                       : 13
  196. Format                                   : UTF-8
  197. Codec ID                                 : S_TEXT/UTF8
  198. Codec ID/Info                            : UTF-8 Plain Text
  199. Duration                                 : 1 h 59 min
  200. Bit rate                                 : 71 b/s
  201. Frame rate                               : 0.256 FPS
  202. Count of elements                        : 1829
  203. Stream size                              : 62.1 KiB (0%)
  204. Title                                    : French [SDH]
  205. Language                                 : French
  206. Default                                  : No
  207. Forced                                   : No
  208. Text #12
  209. ID                                       : 14
  210. Format                                   : UTF-8
  211. Codec ID                                 : S_TEXT/UTF8
  212. Codec ID/Info                            : UTF-8 Plain Text
  213. Duration                                 : 1 h 52 min
  214. Bit rate                                 : 67 b/s
  215. Frame rate                               : 0.243 FPS
  216. Count of elements                        : 1647
  217. Stream size                              : 55.7 KiB (0%)
  218. Title                                    : French
  219. Language                                 : French
  220. Default                                  : No
  221. Forced                                   : No
  222. Text #13
  223. ID                                       : 15
  224. Format                                   : UTF-8
  225. Codec ID                                 : S_TEXT/UTF8
  226. Codec ID/Info                            : UTF-8 Plain Text
  227. Duration                                 : 1 h 59 min
  228. Bit rate                                 : 72 b/s
  229. Frame rate                               : 0.274 FPS
  230. Count of elements                        : 1959
  231. Stream size                              : 63.5 KiB (0%)
  232. Title                                    : German [SDH]
  233. Language                                 : German
  234. Default                                  : No
  235. Forced                                   : No
  236. Text #14
  237. ID                                       : 16
  238. Format                                   : UTF-8
  239. Codec ID                                 : S_TEXT/UTF8
  240. Codec ID/Info                            : UTF-8 Plain Text
  241. Duration                                 : 1 h 54 min
  242. Bit rate                                 : 63 b/s
  243. Frame rate                               : 0.237 FPS
  244. Count of elements                        : 1632
  245. Stream size                              : 53.5 KiB (0%)
  246. Title                                    : German
  247. Language                                 : German
  248. Default                                  : No
  249. Forced                                   : No
  250. Text #15
  251. ID                                       : 17
  252. Format                                   : UTF-8
  253. Codec ID                                 : S_TEXT/UTF8
  254. Codec ID/Info                            : UTF-8 Plain Text
  255. Duration                                 : 1 h 59 min
  256. Bit rate                                 : 85 b/s
  257. Frame rate                               : 0.233 FPS
  258. Count of elements                        : 1671
  259. Stream size                              : 75.0 KiB (0%)
  260. Title                                    : Greek
  261. Language                                 : Greek
  262. Default                                  : No
  263. Forced                                   : No
  264. Text #16
  265. ID                                       : 18
  266. Format                                   : UTF-8
  267. Codec ID                                 : S_TEXT/UTF8
  268. Codec ID/Info                            : UTF-8 Plain Text
  269. Duration                                 : 1 h 59 min
  270. Bit rate                                 : 87 b/s
  271. Frame rate                               : 0.214 FPS
  272. Count of elements                        : 1540
  273. Stream size                              : 76.7 KiB (0%)
  274. Title                                    : Hebrew
  275. Language                                 : Hebrew
  276. Default                                  : No
  277. Forced                                   : No
  278. Text #17
  279. ID                                       : 19
  280. Format                                   : UTF-8
  281. Codec ID                                 : S_TEXT/UTF8
  282. Codec ID/Info                            : UTF-8 Plain Text
  283. Duration                                 : 1 h 59 min
  284. Bit rate                                 : 47 b/s
  285. Frame rate                               : 0.211 FPS
  286. Count of elements                        : 1514
  287. Stream size                              : 41.7 KiB (0%)
  288. Title                                    : Croatian
  289. Language                                 : Croatian
  290. Default                                  : No
  291. Forced                                   : No
  292. Text #18
  293. ID                                       : 20
  294. Format                                   : UTF-8
  295. Codec ID                                 : S_TEXT/UTF8
  296. Codec ID/Info                            : UTF-8 Plain Text
  297. Duration                                 : 1 h 59 min
  298. Bit rate                                 : 53 b/s
  299. Frame rate                               : 0.203 FPS
  300. Count of elements                        : 1460
  301. Stream size                              : 47.3 KiB (0%)
  302. Title                                    : Hungarian
  303. Language                                 : Hungarian
  304. Default                                  : No
  305. Forced                                   : No
  306. Text #19
  307. ID                                       : 21
  308. Format                                   : UTF-8
  309. Codec ID                                 : S_TEXT/UTF8
  310. Codec ID/Info                            : UTF-8 Plain Text
  311. Duration                                 : 1 h 59 min
  312. Bit rate                                 : 49 b/s
  313. Frame rate                               : 0.214 FPS
  314. Count of elements                        : 1539
  315. Stream size                              : 43.4 KiB (0%)
  316. Title                                    : Indonesian
  317. Language                                 : Indonesian
  318. Default                                  : No
  319. Forced                                   : No
  320. Text #20
  321. ID                                       : 22
  322. Format                                   : UTF-8
  323. Codec ID                                 : S_TEXT/UTF8
  324. Codec ID/Info                            : UTF-8 Plain Text
  325. Duration                                 : 1 h 59 min
  326. Bit rate                                 : 66 b/s
  327. Frame rate                               : 0.249 FPS
  328. Count of elements                        : 1781
  329. Stream size                              : 58.1 KiB (0%)
  330. Title                                    : Italian [SDH]
  331. Language                                 : Italian
  332. Default                                  : No
  333. Forced                                   : No
  334. Text #21
  335. ID                                       : 23
  336. Format                                   : UTF-8
  337. Codec ID                                 : S_TEXT/UTF8
  338. Codec ID/Info                            : UTF-8 Plain Text
  339. Duration                                 : 1 h 54 min
  340. Bit rate                                 : 61 b/s
  341. Frame rate                               : 0.234 FPS
  342. Count of elements                        : 1604
  343. Stream size                              : 51.6 KiB (0%)
  344. Title                                    : Italian
  345. Language                                 : Italian
  346. Default                                  : No
  347. Forced                                   : No
  348. Text #22
  349. ID                                       : 24
  350. Format                                   : UTF-8
  351. Codec ID                                 : S_TEXT/UTF8
  352. Codec ID/Info                            : UTF-8 Plain Text
  353. Duration                                 : 1 h 59 min
  354. Bit rate                                 : 48 b/s
  355. Frame rate                               : 0.223 FPS
  356. Count of elements                        : 1603
  357. Stream size                              : 42.4 KiB (0%)
  358. Title                                    : Japanese
  359. Language                                 : Japanese
  360. Default                                  : No
  361. Forced                                   : No
  362. Text #23
  363. ID                                       : 25
  364. Format                                   : UTF-8
  365. Codec ID                                 : S_TEXT/UTF8
  366. Codec ID/Info                            : UTF-8 Plain Text
  367. Duration                                 : 1 h 59 min
  368. Bit rate                                 : 68 b/s
  369. Frame rate                               : 0.222 FPS
  370. Count of elements                        : 1594
  371. Stream size                              : 60.1 KiB (0%)
  372. Title                                    : Korean
  373. Language                                 : Korean
  374. Default                                  : No
  375. Forced                                   : No
  376. Text #24
  377. ID                                       : 26
  378. Format                                   : UTF-8
  379. Codec ID                                 : S_TEXT/UTF8
  380. Codec ID/Info                            : UTF-8 Plain Text
  381. Duration                                 : 1 h 59 min
  382. Bit rate                                 : 48 b/s
  383. Frame rate                               : 0.215 FPS
  384. Count of elements                        : 1543
  385. Stream size                              : 42.9 KiB (0%)
  386. Title                                    : Malay
  387. Language                                 : Malay
  388. Default                                  : No
  389. Forced                                   : No
  390. Text #25
  391. ID                                       : 27
  392. Format                                   : UTF-8
  393. Codec ID                                 : S_TEXT/UTF8
  394. Codec ID/Info                            : UTF-8 Plain Text
  395. Duration                                 : 1 h 59 min
  396. Bit rate                                 : 45 b/s
  397. Frame rate                               : 0.197 FPS
  398. Count of elements                        : 1418
  399. Stream size                              : 39.9 KiB (0%)
  400. Title                                    : Norwegian Bokmal
  401. Language                                 : Norwegian Bokmal
  402. Default                                  : No
  403. Forced                                   : No
  404. Text #26
  405. ID                                       : 28
  406. Format                                   : UTF-8
  407. Codec ID                                 : S_TEXT/UTF8
  408. Codec ID/Info                            : UTF-8 Plain Text
  409. Duration                                 : 1 h 59 min
  410. Bit rate                                 : 49 b/s
  411. Frame rate                               : 0.215 FPS
  412. Count of elements                        : 1541
  413. Stream size                              : 43.8 KiB (0%)
  414. Title                                    : Filipino
  415. Language                                 : phi
  416. Default                                  : No
  417. Forced                                   : No
  418. Text #27
  419. ID                                       : 29
  420. Format                                   : UTF-8
  421. Codec ID                                 : S_TEXT/UTF8
  422. Codec ID/Info                            : UTF-8 Plain Text
  423. Duration                                 : 1 h 59 min
  424. Bit rate                                 : 49 b/s
  425. Frame rate                               : 0.211 FPS
  426. Count of elements                        : 1519
  427. Stream size                              : 43.8 KiB (0%)
  428. Title                                    : Polish
  429. Language                                 : Polish
  430. Default                                  : No
  431. Forced                                   : No
  432. Text #28
  433. ID                                       : 30
  434. Format                                   : UTF-8
  435. Codec ID                                 : S_TEXT/UTF8
  436. Codec ID/Info                            : UTF-8 Plain Text
  437. Duration                                 : 1 h 58 min
  438. Bit rate                                 : 64 b/s
  439. Frame rate                               : 0.248 FPS
  440. Count of elements                        : 1765
  441. Stream size                              : 56.4 KiB (0%)
  442. Title                                    : Brazilian Portuguese [SDH]
  443. Language                                 : Portuguese
  444. Default                                  : No
  445. Forced                                   : No
  446. Text #29
  447. ID                                       : 31
  448. Format                                   : UTF-8
  449. Codec ID                                 : S_TEXT/UTF8
  450. Codec ID/Info                            : UTF-8 Plain Text
  451. Duration                                 : 1 h 52 min
  452. Bit rate                                 : 62 b/s
  453. Frame rate                               : 0.242 FPS
  454. Count of elements                        : 1632
  455. Stream size                              : 51.6 KiB (0%)
  456. Title                                    : Brazilian Portuguese
  457. Language                                 : Portuguese
  458. Default                                  : No
  459. Forced                                   : No
  460. Text #30
  461. ID                                       : 32
  462. Format                                   : UTF-8
  463. Codec ID                                 : S_TEXT/UTF8
  464. Codec ID/Info                            : UTF-8 Plain Text
  465. Duration                                 : 1 h 59 min
  466. Bit rate                                 : 49 b/s
  467. Frame rate                               : 0.210 FPS
  468. Count of elements                        : 1506
  469. Stream size                              : 43.7 KiB (0%)
  470. Title                                    : Portuguese
  471. Language                                 : Portuguese
  472. Default                                  : No
  473. Forced                                   : No
  474. Text #31
  475. ID                                       : 33
  476. Format                                   : UTF-8
  477. Codec ID                                 : S_TEXT/UTF8
  478. Codec ID/Info                            : UTF-8 Plain Text
  479. Duration                                 : 1 h 59 min
  480. Bit rate                                 : 59 b/s
  481. Frame rate                               : 0.213 FPS
  482. Count of elements                        : 1533
  483. Stream size                              : 51.8 KiB (0%)
  484. Title                                    : Romanian
  485. Language                                 : Romanian
  486. Default                                  : No
  487. Forced                                   : No
  488. Text #32
  489. ID                                       : 34
  490. Format                                   : UTF-8
  491. Codec ID                                 : S_TEXT/UTF8
  492. Codec ID/Info                            : UTF-8 Plain Text
  493. Duration                                 : 1 h 59 min
  494. Bit rate                                 : 85 b/s
  495. Frame rate                               : 0.218 FPS
  496. Count of elements                        : 1565
  497. Stream size                              : 74.7 KiB (0%)
  498. Title                                    : Russian
  499. Language                                 : Russian
  500. Default                                  : No
  501. Forced                                   : No
  502. Text #33
  503. ID                                       : 35
  504. Format                                   : UTF-8
  505. Codec ID                                 : S_TEXT/UTF8
  506. Codec ID/Info                            : UTF-8 Plain Text
  507. Duration                                 : 1 h 59 min
  508. Bit rate                                 : 49 b/s
  509. Frame rate                               : 0.218 FPS
  510. Count of elements                        : 1569
  511. Stream size                              : 43.1 KiB (0%)
  512. Title                                    : European Spanish
  513. Language                                 : Spanish
  514. Default                                  : No
  515. Forced                                   : No
  516. Text #34
  517. ID                                       : 36
  518. Format                                   : UTF-8
  519. Codec ID                                 : S_TEXT/UTF8
  520. Codec ID/Info                            : UTF-8 Plain Text
  521. Duration                                 : 2 h 0 min
  522. Bit rate                                 : 65 b/s
  523. Frame rate                               : 0.248 FPS
  524. Count of elements                        : 1787
  525. Stream size                              : 57.6 KiB (0%)
  526. Title                                    : Spanish [SDH]
  527. Language                                 : Spanish
  528. Default                                  : No
  529. Forced                                   : No
  530. Text #35
  531. ID                                       : 37
  532. Format                                   : UTF-8
  533. Codec ID                                 : S_TEXT/UTF8
  534. Codec ID/Info                            : UTF-8 Plain Text
  535. Duration                                 : 1 h 59 min
  536. Bit rate                                 : 57 b/s
  537. Frame rate                               : 0.217 FPS
  538. Count of elements                        : 1562
  539. Stream size                              : 50.1 KiB (0%)
  540. Title                                    : Spanish
  541. Language                                 : Spanish
  542. Default                                  : No
  543. Forced                                   : No
  544. Text #36
  545. ID                                       : 38
  546. Format                                   : UTF-8
  547. Codec ID                                 : S_TEXT/UTF8
  548. Codec ID/Info                            : UTF-8 Plain Text
  549. Duration                                 : 1 h 59 min
  550. Bit rate                                 : 51 b/s
  551. Frame rate                               : 0.193 FPS
  552. Count of elements                        : 1389
  553. Stream size                              : 44.9 KiB (0%)
  554. Title                                    : Swedish
  555. Language                                 : Swedish
  556. Default                                  : No
  557. Forced                                   : No
  558. Text #37
  559. ID                                       : 39
  560. Format                                   : UTF-8
  561. Codec ID                                 : S_TEXT/UTF8
  562. Codec ID/Info                            : UTF-8 Plain Text
  563. Duration                                 : 1 h 59 min
  564. Bit rate                                 : 142 b/s
  565. Frame rate                               : 0.216 FPS
  566. Count of elements                        : 1549
  567. Stream size                              : 125 KiB (0%)
  568. Title                                    : Thai
  569. Language                                 : Thai
  570. Default                                  : No
  571. Forced                                   : No
  572. Text #38
  573. ID                                       : 40
  574. Format                                   : UTF-8
  575. Codec ID                                 : S_TEXT/UTF8
  576. Codec ID/Info                            : UTF-8 Plain Text
  577. Duration                                 : 1 h 59 min
  578. Bit rate                                 : 51 b/s
  579. Frame rate                               : 0.215 FPS
  580. Count of elements                        : 1541
  581. Stream size                              : 45.5 KiB (0%)
  582. Title                                    : Turkish
  583. Language                                 : Turkish
  584. Default                                  : No
  585. Forced                                   : No
  586. Text #39
  587. ID                                       : 41
  588. Format                                   : UTF-8
  589. Codec ID                                 : S_TEXT/UTF8
  590. Codec ID/Info                            : UTF-8 Plain Text
  591. Duration                                 : 1 h 59 min
  592. Bit rate                                 : 78 b/s
  593. Frame rate                               : 0.217 FPS
  594. Count of elements                        : 1560
  595. Stream size                              : 69.2 KiB (0%)
  596. Title                                    : Ukrainian
  597. Language                                 : Ukrainian
  598. Default                                  : No
  599. Forced                                   : No
  600. Text #40
  601. ID                                       : 42
  602. Format                                   : UTF-8
  603. Codec ID                                 : S_TEXT/UTF8
  604. Codec ID/Info                            : UTF-8 Plain Text
  605. Duration                                 : 1 h 59 min
  606. Bit rate                                 : 73 b/s
  607. Frame rate                               : 0.208 FPS
  608. Count of elements                        : 1493
  609. Stream size                              : 64.4 KiB (0%)
  610. Title                                    : Vietnamese
  611. Language                                 : Vietnamese
  612. Default                                  : No
  613. Forced                                   : No
复制代码











回复

使用道具 举报

蓝光币
190
发表于 2023-1-11 16:23:40 | 显示全部楼层
楼主发贴辛苦了,谢谢楼主分享!我觉得蓝光电影网是注册对了!
回复 支持 反对

使用道具 举报

懒得打字嘛,点击右侧快捷回复 【右侧内容,后台自定义】
您需要登录后才可以回帖 登录 | 立即加入

本版积分规则

Archiver|小黑屋| 蓝光电影网 |网站地图

Copyright © 2021 Comsenz Inc. Powered by 蓝光电影网

蓝光电影网

本站内容由用户自主分享和转载自互联网,转载目的在于传递更多信息,并不代表本网赞同其观点和对其真实性负责。

如有侵权、违反国家法律政策行为,请联系我们,我们会第一时间及时清除和处理!

举报反馈邮箱:[email protected]

快速回复 返回顶部 返回列表