找回密码

蓝光电影网

查看: 162|回复: 0

[2160p-WEB] 法外之王[中文字幕].Outlaw.King.2018.2160p.NF.WEB-DL.x265.10bit.SDR.DDP5.1.Atmos-HONE 15.76GB

[复制链接]
蓝光币
1082
发表于 2023-1-10 16:18:23 | 显示全部楼层 |阅读模式


◎标  题 法外之王
◎译  名 逃犯国王(港)  /  犯警国王(台)  /  没法之王
◎片  名 Outlaw King
◎年  代 2018
◎产  地 英国
◎类  别 剧情 / 列传 / 行动 / 历史
◎语  言 英语
◎上映日期 2018-09-06
◎IMDb评分 6.9/10 (73722人评价)
◎IMDb链接 https://www.imdb.com/title/tt6679794/
◎豆瓣评分 7.4/10 (6521人评价)
◎豆瓣链接 https://movie.douban.com/subject/27029495/
◎导  演 大卫·马肯兹
◎编  剧 大卫·马肯兹
       巴斯肖巴·多伦
       詹姆斯·麦金尼斯
       大卫·哈罗尔
       马克·鲍姆贝克
◎演  员 卡兰·马尔韦
       克里斯·派恩
       弗洛伦丝·皮尤
       亚伦·泰勒-约翰逊
       詹姆斯·科兹莫
       斯蒂芬·迪兰
       丽贝卡·罗宾
       比利·豪尔
       萨姆·斯普卢尔
       乔纳森·菲利普斯
       邓肯·拉克鲁瓦
       史蒂芬·克里
       托尼·库兰
       阿拉斯塔尔·麦肯泽
       洛娜·麦克法迪
       杰克·格林利斯
       珍妮·赫尔斯
       黛西·利透菲尔德
◎简  介
  本片报告罗伯特·布鲁斯不为人知的实在故事。他昔日是败北的贵族,后来不情愿地当上国王,然后在盘曲古怪的一年景为法外豪杰。为了拯救家人、群众和国家,让中世纪的苏格兰离开英格兰的残暴佔领,罗伯特被迫投入战争...
  1. Video
  2. ID                                       : 1
  3. Format                                   : HEVC
  4. Format/Info                              : High Efficiency Video Coding
  5. Format profile                           : Main [email protected]@Main
  6. Codec ID                                 : V_MPEGH/ISO/HEVC
  7. Duration                                 : 2 h 1 min
  8. Bit rate                                 : 17.8 Mb/s
  9. Width                                    : 3 840 pixels
  10. Height                                   : 2 160 pixels
  11. Display aspect ratio                     : 16:9
  12. Frame rate mode                          : Constant
  13. Frame rate                               : 24.000 FPS
  14. Color space                              : YUV
  15. Chroma subsampling                       : 4:2:0
  16. Bit depth                                : 10 bits
  17. Bits/(Pixel*Frame)                       : 0.089
  18. Stream size                              : 15.1 GiB (96%)
  19. Language                                 : English
  20. Default                                  : Yes
  21. Forced                                   : No
  22. Color range                              : Limited
  23. Color primaries                          : BT.709
  24. Transfer characteristics                 : BT.709
  25. Matrix coefficients                      : BT.709
  26. Audio
  27. ID                                       : 2
  28. Format                                   : E-AC-3 JOC
  29. Format/Info                              : Enhanced AC-3 with Joint Object Coding
  30. Commercial name                          : Dolby Digital Plus with Dolby Atmos
  31. Codec ID                                 : A_EAC3
  32. Duration                                 : 2 h 1 min
  33. Bit rate mode                            : Constant
  34. Bit rate                                 : 768 kb/s
  35. Channel(s)                               : 6 channels
  36. Channel layout                           : L R C LFE Ls Rs
  37. Sampling rate                            : 48.0 kHz
  38. Frame rate                               : 31.250 FPS (1536 SPF)
  39. Compression mode                         : Lossy
  40. Stream size                              : 668 MiB (4%)
  41. Language                                 : English
  42. Service kind                             : Complete Main
  43. Default                                  : Yes
  44. Forced                                   : No
  45. Complexity index                         : 16
  46. Number of dynamic objects                : 15
  47. Bed channel count                        : 1 channel
  48. Bed channel configuration                : LFE
  49. Text #1
  50. ID                                       : 3
  51. Format                                   : UTF-8
  52. Codec ID                                 : S_TEXT/UTF8
  53. Codec ID/Info                            : UTF-8 Plain Text
  54. Duration                                 : 1 h 51 min
  55. Bit rate                                 : 39 b/s
  56. Frame rate                               : 0.171 FPS
  57. Count of elements                        : 1145
  58. Stream size                              : 32.5 KiB (0%)
  59. Language                                 : English
  60. Default                                  : No
  61. Forced                                   : No
  62. Text #2
  63. ID                                       : 4
  64. Format                                   : UTF-8
  65. Codec ID                                 : S_TEXT/UTF8
  66. Codec ID/Info                            : UTF-8 Plain Text
  67. Duration                                 : 1 h 59 min
  68. Bit rate                                 : 48 b/s
  69. Frame rate                               : 0.193 FPS
  70. Count of elements                        : 1387
  71. Stream size                              : 42.3 KiB (0%)
  72. Title                                    : SDH
  73. Language                                 : English
  74. Default                                  : No
  75. Forced                                   : No
  76. Text #3
  77. ID                                       : 5
  78. Format                                   : UTF-8
  79. Codec ID                                 : S_TEXT/UTF8
  80. Codec ID/Info                            : UTF-8 Plain Text
  81. Duration                                 : 2 h 0 min
  82. Bit rate                                 : 66 b/s
  83. Frame rate                               : 0.167 FPS
  84. Count of elements                        : 1204
  85. Stream size                              : 59.0 KiB (0%)
  86. Language                                 : Arabic
  87. Default                                  : No
  88. Forced                                   : No
  89. Text #4
  90. ID                                       : 6
  91. Format                                   : UTF-8
  92. Codec ID                                 : S_TEXT/UTF8
  93. Codec ID/Info                            : UTF-8 Plain Text
  94. Duration                                 : 2 h 0 min
  95. Bit rate                                 : 34 b/s
  96. Frame rate                               : 0.165 FPS
  97. Count of elements                        : 1193
  98. Stream size                              : 30.3 KiB (0%)
  99. Language                                 : Czech
  100. Default                                  : No
  101. Forced                                   : No
  102. Text #5
  103. ID                                       : 7
  104. Format                                   : UTF-8
  105. Codec ID                                 : S_TEXT/UTF8
  106. Codec ID/Info                            : UTF-8 Plain Text
  107. Duration                                 : 2 h 0 min
  108. Bit rate                                 : 34 b/s
  109. Frame rate                               : 0.132 FPS
  110. Count of elements                        : 956
  111. Stream size                              : 30.3 KiB (0%)
  112. Language                                 : Danish
  113. Default                                  : No
  114. Forced                                   : No
  115. Text #6
  116. ID                                       : 8
  117. Format                                   : UTF-8
  118. Codec ID                                 : S_TEXT/UTF8
  119. Codec ID/Info                            : UTF-8 Plain Text
  120. Duration                                 : 2 h 0 min
  121. Bit rate                                 : 40 b/s
  122. Frame rate                               : 0.165 FPS
  123. Count of elements                        : 1196
  124. Stream size                              : 35.4 KiB (0%)
  125. Language                                 : German
  126. Default                                  : No
  127. Forced                                   : No
  128. Text #7
  129. ID                                       : 9
  130. Format                                   : UTF-8
  131. Codec ID                                 : S_TEXT/UTF8
  132. Codec ID/Info                            : UTF-8 Plain Text
  133. Duration                                 : 2 h 0 min
  134. Bit rate                                 : 68 b/s
  135. Frame rate                               : 0.162 FPS
  136. Count of elements                        : 1174
  137. Stream size                              : 60.6 KiB (0%)
  138. Language                                 : Greek
  139. Default                                  : No
  140. Forced                                   : No
  141. Text #8
  142. ID                                       : 10
  143. Format                                   : UTF-8
  144. Codec ID                                 : S_TEXT/UTF8
  145. Codec ID/Info                            : UTF-8 Plain Text
  146. Duration                                 : 2 h 0 min
  147. Bit rate                                 : 39 b/s
  148. Frame rate                               : 0.170 FPS
  149. Count of elements                        : 1226
  150. Stream size                              : 35.1 KiB (0%)
  151. Title                                    : Latin American
  152. Language                                 : Spanish (Latin America)
  153. Default                                  : No
  154. Forced                                   : No
  155. Text #9
  156. ID                                       : 11
  157. Format                                   : UTF-8
  158. Codec ID                                 : S_TEXT/UTF8
  159. Codec ID/Info                            : UTF-8 Plain Text
  160. Duration                                 : 2 h 0 min
  161. Bit rate                                 : 37 b/s
  162. Frame rate                               : 0.164 FPS
  163. Count of elements                        : 1183
  164. Stream size                              : 32.8 KiB (0%)
  165. Language                                 : Spanish (ES)
  166. Default                                  : No
  167. Forced                                   : No
  168. Text #10
  169. ID                                       : 12
  170. Format                                   : UTF-8
  171. Codec ID                                 : S_TEXT/UTF8
  172. Codec ID/Info                            : UTF-8 Plain Text
  173. Duration                                 : 2 h 0 min
  174. Bit rate                                 : 33 b/s
  175. Frame rate                               : 0.135 FPS
  176. Count of elements                        : 977
  177. Stream size                              : 29.3 KiB (0%)
  178. Language                                 : Finnish
  179. Default                                  : No
  180. Forced                                   : No
  181. Text #11
  182. ID                                       : 13
  183. Format                                   : UTF-8
  184. Codec ID                                 : S_TEXT/UTF8
  185. Codec ID/Info                            : UTF-8 Plain Text
  186. Duration                                 : 2 h 0 min
  187. Bit rate                                 : 41 b/s
  188. Frame rate                               : 0.167 FPS
  189. Count of elements                        : 1205
  190. Stream size                              : 36.3 KiB (0%)
  191. Language                                 : French
  192. Default                                  : No
  193. Forced                                   : No
  194. Text #12
  195. ID                                       : 14
  196. Format                                   : UTF-8
  197. Codec ID                                 : S_TEXT/UTF8
  198. Codec ID/Info                            : UTF-8 Plain Text
  199. Duration                                 : 2 h 0 min
  200. Bit rate                                 : 58 b/s
  201. Frame rate                               : 0.167 FPS
  202. Count of elements                        : 1210
  203. Stream size                              : 51.4 KiB (0%)
  204. Language                                 : Hebrew
  205. Default                                  : No
  206. Forced                                   : No
  207. Text #13
  208. ID                                       : 15
  209. Format                                   : UTF-8
  210. Codec ID                                 : S_TEXT/UTF8
  211. Codec ID/Info                            : UTF-8 Plain Text
  212. Duration                                 : 2 h 0 min
  213. Bit rate                                 : 35 b/s
  214. Frame rate                               : 0.162 FPS
  215. Count of elements                        : 1174
  216. Stream size                              : 31.2 KiB (0%)
  217. Language                                 : Hungarian
  218. Default                                  : No
  219. Forced                                   : No
  220. Text #14
  221. ID                                       : 16
  222. Format                                   : UTF-8
  223. Codec ID                                 : S_TEXT/UTF8
  224. Codec ID/Info                            : UTF-8 Plain Text
  225. Duration                                 : 2 h 0 min
  226. Bit rate                                 : 37 b/s
  227. Frame rate                               : 0.160 FPS
  228. Count of elements                        : 1155
  229. Stream size                              : 33.0 KiB (0%)
  230. Language                                 : Indonesian
  231. Default                                  : No
  232. Forced                                   : No
  233. Text #15
  234. ID                                       : 17
  235. Format                                   : UTF-8
  236. Codec ID                                 : S_TEXT/UTF8
  237. Codec ID/Info                            : UTF-8 Plain Text
  238. Duration                                 : 2 h 0 min
  239. Bit rate                                 : 35 b/s
  240. Frame rate                               : 0.158 FPS
  241. Count of elements                        : 1139
  242. Stream size                              : 31.7 KiB (0%)
  243. Language                                 : Italian
  244. Default                                  : No
  245. Forced                                   : No
  246. Text #16
  247. ID                                       : 18
  248. Format                                   : UTF-8
  249. Codec ID                                 : S_TEXT/UTF8
  250. Codec ID/Info                            : UTF-8 Plain Text
  251. Duration                                 : 2 h 0 min
  252. Bit rate                                 : 31 b/s
  253. Frame rate                               : 0.153 FPS
  254. Count of elements                        : 1108
  255. Stream size                              : 27.8 KiB (0%)
  256. Language                                 : Japanese
  257. Default                                  : No
  258. Forced                                   : No
  259. Text #17
  260. ID                                       : 19
  261. Format                                   : UTF-8
  262. Codec ID                                 : S_TEXT/UTF8
  263. Codec ID/Info                            : UTF-8 Plain Text
  264. Duration                                 : 2 h 0 min
  265. Bit rate                                 : 44 b/s
  266. Frame rate                               : 0.167 FPS
  267. Count of elements                        : 1207
  268. Stream size                              : 38.9 KiB (0%)
  269. Language                                 : Korean
  270. Default                                  : No
  271. Forced                                   : No
  272. Text #18
  273. ID                                       : 20
  274. Format                                   : UTF-8
  275. Codec ID                                 : S_TEXT/UTF8
  276. Codec ID/Info                            : UTF-8 Plain Text
  277. Duration                                 : 2 h 0 min
  278. Bit rate                                 : 32 b/s
  279. Frame rate                               : 0.166 FPS
  280. Count of elements                        : 1199
  281. Stream size                              : 28.6 KiB (0%)
  282. Language                                 : Norwegian Bokmal
  283. Default                                  : No
  284. Forced                                   : No
  285. Text #19
  286. ID                                       : 21
  287. Format                                   : UTF-8
  288. Codec ID                                 : S_TEXT/UTF8
  289. Codec ID/Info                            : UTF-8 Plain Text
  290. Duration                                 : 2 h 0 min
  291. Bit rate                                 : 37 b/s
  292. Frame rate                               : 0.163 FPS
  293. Count of elements                        : 1175
  294. Stream size                              : 32.8 KiB (0%)
  295. Language                                 : Dutch
  296. Default                                  : No
  297. Forced                                   : No
  298. Text #20
  299. ID                                       : 22
  300. Format                                   : UTF-8
  301. Codec ID                                 : S_TEXT/UTF8
  302. Codec ID/Info                            : UTF-8 Plain Text
  303. Duration                                 : 2 h 0 min
  304. Bit rate                                 : 37 b/s
  305. Frame rate                               : 0.165 FPS
  306. Count of elements                        : 1196
  307. Stream size                              : 32.8 KiB (0%)
  308. Language                                 : Polish
  309. Default                                  : No
  310. Forced                                   : No
  311. Text #21
  312. ID                                       : 23
  313. Format                                   : UTF-8
  314. Codec ID                                 : S_TEXT/UTF8
  315. Codec ID/Info                            : UTF-8 Plain Text
  316. Duration                                 : 2 h 0 min
  317. Bit rate                                 : 36 b/s
  318. Frame rate                               : 0.158 FPS
  319. Count of elements                        : 1145
  320. Stream size                              : 31.8 KiB (0%)
  321. Title                                    : Brazilian
  322. Language                                 : Portuguese (BR)
  323. Default                                  : No
  324. Forced                                   : No
  325. Text #22
  326. ID                                       : 24
  327. Format                                   : UTF-8
  328. Codec ID                                 : S_TEXT/UTF8
  329. Codec ID/Info                            : UTF-8 Plain Text
  330. Duration                                 : 2 h 0 min
  331. Bit rate                                 : 38 b/s
  332. Frame rate                               : 0.155 FPS
  333. Count of elements                        : 1118
  334. Stream size                              : 33.8 KiB (0%)
  335. Language                                 : Portuguese (PT)
  336. Default                                  : No
  337. Forced                                   : No
  338. Text #23
  339. ID                                       : 25
  340. Format                                   : UTF-8
  341. Codec ID                                 : S_TEXT/UTF8
  342. Codec ID/Info                            : UTF-8 Plain Text
  343. Duration                                 : 2 h 0 min
  344. Bit rate                                 : 38 b/s
  345. Frame rate                               : 0.160 FPS
  346. Count of elements                        : 1158
  347. Stream size                              : 33.8 KiB (0%)
  348. Language                                 : Romanian
  349. Default                                  : No
  350. Forced                                   : No
  351. Text #24
  352. ID                                       : 26
  353. Format                                   : UTF-8
  354. Codec ID                                 : S_TEXT/UTF8
  355. Codec ID/Info                            : UTF-8 Plain Text
  356. Duration                                 : 2 h 0 min
  357. Bit rate                                 : 63 b/s
  358. Frame rate                               : 0.166 FPS
  359. Count of elements                        : 1198
  360. Stream size                              : 56.3 KiB (0%)
  361. Language                                 : Russian
  362. Default                                  : No
  363. Forced                                   : No
  364. Text #25
  365. ID                                       : 27
  366. Format                                   : UTF-8
  367. Codec ID                                 : S_TEXT/UTF8
  368. Codec ID/Info                            : UTF-8 Plain Text
  369. Duration                                 : 2 h 0 min
  370. Bit rate                                 : 37 b/s
  371. Frame rate                               : 0.162 FPS
  372. Count of elements                        : 1169
  373. Stream size                              : 32.9 KiB (0%)
  374. Language                                 : Swedish
  375. Default                                  : No
  376. Forced                                   : No
  377. Text #26
  378. ID                                       : 28
  379. Format                                   : UTF-8
  380. Codec ID                                 : S_TEXT/UTF8
  381. Codec ID/Info                            : UTF-8 Plain Text
  382. Duration                                 : 2 h 0 min
  383. Bit rate                                 : 98 b/s
  384. Frame rate                               : 0.167 FPS
  385. Count of elements                        : 1205
  386. Stream size                              : 86.6 KiB (0%)
  387. Language                                 : Thai
  388. Default                                  : No
  389. Forced                                   : No
  390. Text #27
  391. ID                                       : 29
  392. Format                                   : UTF-8
  393. Codec ID                                 : S_TEXT/UTF8
  394. Codec ID/Info                            : UTF-8 Plain Text
  395. Duration                                 : 2 h 0 min
  396. Bit rate                                 : 38 b/s
  397. Frame rate                               : 0.166 FPS
  398. Count of elements                        : 1203
  399. Stream size                              : 33.9 KiB (0%)
  400. Language                                 : Turkish
  401. Default                                  : No
  402. Forced                                   : No
  403. Text #28
  404. ID                                       : 30
  405. Format                                   : UTF-8
  406. Codec ID                                 : S_TEXT/UTF8
  407. Codec ID/Info                            : UTF-8 Plain Text
  408. Duration                                 : 2 h 0 min
  409. Bit rate                                 : 56 b/s
  410. Frame rate                               : 0.161 FPS
  411. Count of elements                        : 1162
  412. Stream size                              : 50.1 KiB (0%)
  413. Language                                 : Ukrainian
  414. Default                                  : No
  415. Forced                                   : No
  416. Text #29
  417. ID                                       : 31
  418. Format                                   : UTF-8
  419. Codec ID                                 : S_TEXT/UTF8
  420. Codec ID/Info                            : UTF-8 Plain Text
  421. Duration                                 : 2 h 0 min
  422. Bit rate                                 : 50 b/s
  423. Frame rate                               : 0.169 FPS
  424. Count of elements                        : 1220
  425. Stream size                              : 44.3 KiB (0%)
  426. Language                                 : Vietnamese
  427. Default                                  : No
  428. Forced                                   : No
  429. Text #30
  430. ID                                       : 32
  431. Format                                   : UTF-8
  432. Codec ID                                 : S_TEXT/UTF8
  433. Codec ID/Info                            : UTF-8 Plain Text
  434. Duration                                 : 2 h 0 min
  435. Bit rate                                 : 35 b/s
  436. Frame rate                               : 0.168 FPS
  437. Count of elements                        : 1214
  438. Stream size                              : 31.3 KiB (0%)
  439. Title                                    : Simplified
  440. Language                                 : Chinese (Simplied)
  441. Default                                  : No
  442. Forced                                   : No
  443. Text #31
  444. ID                                       : 33
  445. Format                                   : UTF-8
  446. Codec ID                                 : S_TEXT/UTF8
  447. Codec ID/Info                            : UTF-8 Plain Text
  448. Duration                                 : 2 h 0 min
  449. Bit rate                                 : 37 b/s
  450. Frame rate                               : 0.167 FPS
  451. Count of elements                        : 1209
  452. Stream size                              : 33.1 KiB (0%)
  453. Title                                    : Traditional
  454. Language                                 : Chinese (Traditional)
  455. Default                                  : No
  456. Forced                                   : No
  457. Menu
  458. 01:55:10.000                             : en:End Credits
复制代码











回复

使用道具 举报

懒得打字嘛,点击右侧快捷回复 【右侧内容,后台自定义】
您需要登录后才可以回帖 登录 | 立即加入

本版积分规则

Archiver|小黑屋| 蓝光电影网 |网站地图

Copyright © 2021 Comsenz Inc. Powered by 蓝光电影网

蓝光电影网

本站内容由用户自主分享和转载自互联网,转载目的在于传递更多信息,并不代表本网赞同其观点和对其真实性负责。

如有侵权、违反国家法律政策行为,请联系我们,我们会第一时间及时清除和处理!

举报反馈邮箱:[email protected]

快速回复 返回顶部 返回列表