找回密码

蓝光电影网

查看: 717|回复: 0

[剧情] 双刃剑.Both.Sides.of.the.Blade.2022.FRENCH.1080p.BluRay.x264.DTS-HDS 11.02GB

[复制链接]
蓝光币
1451
发表于 2023-1-10 18:05:46 | 显示全部楼层 |阅读模式


◎标  题 双刃剑
◎译  名 广播副本 / Radioscopie / Fire / Both Sides of the Blade / Feu / 火
◎片  名 Avec amour et acharnement
◎年  代 2022
◎产  地 法国
◎类  别 剧情 / 恋爱
◎语  言 法语
◎上映日期 2022-02-12(柏林电影节) / 2022-08-31(法国)
◎IMDb评分 6.5/10 (780人评价)
◎IMDb链接 https://www.imdb.com/title/tt13535920/
◎豆瓣评分 6.4/10 (284人评价)
◎豆瓣链接 https://movie.douban.com/subject/35268858/
◎片  长 116分钟
◎导  演 克莱尔·德尼 Claire Denis
◎编  剧 克莉丝汀·安戈 Christine Angot
       克莱尔·德尼 Claire Denis
◎演  员 朱丽叶·比诺什 Juliette Binoche
       文森特·林顿 Vincent Lindon
       格莱戈尔·科林 Grégoire Colin
       布鲁·欧吉尔 Bulle Ogier
       伊萨·佩里卡 Issa Perica
       艾丽斯·乌里 Alice Houri
       玛缇·迪欧普 Mati Diop
       布鲁诺·波达里德斯 Bruno Podalydès
       萝拉·克雷顿 Lola Créton
       理查德·库塞 Richard Courcet
       哈娜·马吉梅尔 Hana Magimel
       埃里克·戈蒂耶 Eric Gautier
◎简  介
  让和莎拉已经同居10年了,他们初度相遇时,萨拉和弗朗索瓦住在一路。弗朗索瓦是让最好的朋友,也是让之前打职业橄榄球时的敬慕者。让和萨拉是相爱的,一天,萨拉在街上看到弗朗索瓦。他没有留意到她,但她激烈感遭到自己的生活能够忽然改变。弗朗索瓦与让多年来第一次重新获得联系,他倡议两人再次一路工作,今后,一切都失控了。
  1. Video
  2. ID                                       : 1
  3. Format                                   : AVC
  4. Format/Info                              : Advanced Video Codec
  5. Format profile                           : High@L4.1
  6. Format settings                          : CABAC / 5 Ref Frames
  7. Format settings, CABAC                   : Yes
  8. Format settings, Reference frames        : 5 frames
  9. Codec ID                                 : V_MPEG4/ISO/AVC
  10. Duration                                 : 1 h 56 min
  11. Bit rate                                 : 12.0 Mb/s
  12. Width                                    : 1 920 pixels
  13. Height                                   : 804 pixels
  14. Display aspect ratio                     : 2.40:1
  15. Frame rate mode                          : Constant
  16. Frame rate                               : 24.000 FPS
  17. Color space                              : YUV
  18. Chroma subsampling                       : 4:2:0
  19. Bit depth                                : 8 bits
  20. Scan type                                : Progressive
  21. Bits/(Pixel*Frame)                       : 0.324
  22. Stream size                              : 9.79 GiB (89%)
  23. Default                                  : Yes
  24. Forced                                   : No
  25. Audio
  26. ID                                       : 2
  27. Format                                   : DTS
  28. Format/Info                              : Digital Theater Systems
  29. Codec ID                                 : A_DTS
  30. Duration                                 : 1 h 56 min
  31. Bit rate mode                            : Constant
  32. Bit rate                                 : 1 509 kb/s
  33. Channel(s)                               : 6 channels
  34. Channel layout                           : C L R Ls Rs LFE
  35. Sampling rate                            : 48.0 kHz
  36. Frame rate                               : 93.750 FPS (512 SPF)
  37. Bit depth                                : 24 bits
  38. Compression mode                         : Lossy
  39. Stream size                              : 1.23 GiB (11%)
  40. Title                                    : French
  41. Language                                 : French
  42. Default                                  : Yes
  43. Forced                                   : No
  44. Text
  45. ID                                       : 3
  46. Format                                   : UTF-8
  47. Codec ID                                 : S_TEXT/UTF8
  48. Codec ID/Info                            : UTF-8 Plain Text
  49. Duration                                 : 1 h 45 min
  50. Bit rate                                 : 42 b/s
  51. Frame rate                               : 0.204 FPS
  52. Count of elements                        : 1288
  53. Stream size                              : 32.8 KiB (0%)
  54. Language                                 : English
  55. Default                                  : Yes
  56. Forced                                   : No
  57. Menu
  58. 00:00:00.000                             : en:第 01 章
  59. 00:09:59.000                             : en:第 02 章
  60. 00:19:20.458                             : en:第 03 章
  61. 00:30:08.458                             : en:第 04 章
  62. 00:41:13.750                             : en:第 05 章
  63. 00:48:13.167                             : en:第 06 章
  64. 00:56:12.458                             : en:第 07 章
  65. 01:06:32.667                             : en:第 08 章
  66. 01:16:40.292                             : en:第 09 章
  67. 01:26:53.792                             : en:第 10 章
  68. 01:36:38.875                             : en:第 11 章
  69. 01:46:30.667                             : en:第 12 章
复制代码











回复

使用道具 举报

懒得打字嘛,点击右侧快捷回复 【右侧内容,后台自定义】
您需要登录后才可以回帖 登录 | 立即加入

本版积分规则

Archiver|小黑屋| 蓝光电影网 |网站地图

Copyright © 2021 Comsenz Inc. Powered by 蓝光电影网

蓝光电影网

本站内容由用户自主分享和转载自互联网,转载目的在于传递更多信息,并不代表本网赞同其观点和对其真实性负责。

如有侵权、违反国家法律政策行为,请联系我们,我们会第一时间及时清除和处理!

举报反馈邮箱:4k1080.com@gmail.com

快速回复 返回顶部 返回列表