找回密码

蓝光电影网

查看: 31|回复: 0

[剧情] 来自1945战俘的情书.WWII.The.Long.Road.Home.2017.1080p.AMZN.WEBRip.DDP2.0.x264-PTerWEB 4.50GB

[复制链接]
蓝光币
1084
发表于 2023-1-10 18:13:34 | 显示全部楼层 |阅读模式


◎标  题 来自1945战俘的情书
◎译  名 WWII: The Long Road Home
◎片  名 Charlie's Letters
◎年  代 2019
◎产  地 英国
◎类  别 剧情 / 战争
◎语  言 英语
◎上映日期 2019(英国)
◎IMDb评分 4/10 (88人评价)
◎IMDb链接 https://www.imdb.com/title/tt7063474/
◎豆瓣链接 https://movie.douban.com/subject/35237426/
◎片  长 90分钟
◎简  介
  Inspired by director Elliott Hasler's great-grandfather's own experiences, 'Charlie's Letters' depicts an escaped British POW's epic battle for survival whilst on the run in war-torn Italy, as his wife and young son anxiously await news in England. Completed when Hasler was just sixteen years old, this impressive debut was shot across five countries and spent three years in pro...
  1. Video
  2. ID                                       : 1
  3. Format                                   : AVC
  4. Format/Info                              : Advanced Video Codec
  5. Format profile                           : [email protected]
  6. Format settings                          : CABAC / 4 Ref Frames
  7. Format settings, CABAC                   : Yes
  8. Format settings, Reference frames        : 4 frames
  9. Codec ID                                 : V_MPEG4/ISO/AVC
  10. Duration                                 : 1 h 15 min
  11. Bit rate                                 : 8 261 kb/s
  12. Width                                    : 1 920 pixels
  13. Height                                   : 1 080 pixels
  14. Display aspect ratio                     : 16:9
  15. Frame rate mode                          : Constant
  16. Frame rate                               : 25.000 FPS
  17. Color space                              : YUV
  18. Chroma subsampling                       : 4:2:0
  19. Bit depth                                : 8 bits
  20. Scan type                                : Progressive
  21. Bits/(Pixel*Frame)                       : 0.159
  22. Stream size                              : 4.38 GiB (97%)
  23. Default                                  : Yes
  24. Forced                                   : No
  25. Color range                              : Limited
  26. Color primaries                          : BT.709
  27. Transfer characteristics                 : BT.709
  28. Matrix coefficients                      : BT.709
  29. Audio
  30. ID                                       : 2
  31. Format                                   : E-AC-3
  32. Format/Info                              : Enhanced AC-3
  33. Commercial name                          : Dolby Digital Plus
  34. Codec ID                                 : A_EAC3
  35. Duration                                 : 1 h 15 min
  36. Bit rate mode                            : Constant
  37. Bit rate                                 : 224 kb/s
  38. Channel(s)                               : 2 channels
  39. Channel layout                           : L R
  40. Sampling rate                            : 48.0 kHz
  41. Frame rate                               : 31.250 FPS (1536 SPF)
  42. Compression mode                         : Lossy
  43. Stream size                              : 122 MiB (3%)
  44. Language                                 : English
  45. Service kind                             : Complete Main
  46. Default                                  : Yes
  47. Forced                                   : No
  48. Text
  49. ID                                       : 3
  50. Format                                   : UTF-8
  51. Codec ID                                 : S_TEXT/UTF8
  52. Codec ID/Info                            : UTF-8 Plain Text
  53. Duration                                 : 1 h 11 min
  54. Bit rate                                 : 34 b/s
  55. Frame rate                               : 0.108 FPS
  56. Count of elements                        : 466
  57. Stream size                              : 18.0 KiB (0%)
  58. Language                                 : English
  59. Default                                  : No
  60. Forced                                   : No
复制代码











回复

使用道具 举报

懒得打字嘛,点击右侧快捷回复 【右侧内容,后台自定义】
您需要登录后才可以回帖 登录 | 立即加入

本版积分规则

Archiver|小黑屋| 蓝光电影网 |网站地图

Copyright © 2021 Comsenz Inc. Powered by 蓝光电影网

蓝光电影网

本站内容由用户自主分享和转载自互联网,转载目的在于传递更多信息,并不代表本网赞同其观点和对其真实性负责。

如有侵权、违反国家法律政策行为,请联系我们,我们会第一时间及时清除和处理!

举报反馈邮箱:[email protected]

快速回复 返回顶部 返回列表