找回密码

蓝光电影网

查看: 44|回复: 0

[2160p] 尔虞我诈.Used.Cars.1980.2160p.UHD.BluRay.x265.10bit.HDR.DDP5.1-RARBG 6.82GB

[复制链接]
蓝光币
1084
发表于 2023-1-11 22:03:24 | 显示全部楼层 |阅读模式


◎标  题 钩心斗角
◎译  名 抢食天下 / 旧车
◎片  名 Used Cars
◎年  代 1980
◎产  地 美国
◎类  别 笑剧
◎语  言 英语
◎上映日期 1980-07-11
◎IMDb评分 6.7/10 (15026人评价)
◎IMDb链接 https://www.imdb.com/title/tt0081698/
◎豆瓣评分 7.0/10 (206人评价)
◎豆瓣链接 https://movie.douban.com/subject/1301183/
◎片  长 113 分钟
◎导  演 罗伯特·泽米吉斯 Robert Zemeckis
◎编  剧 鲍勃·盖尔 Bob Gale
       罗伯特·泽米吉斯 Robert Zemeckis
◎演  员 库尔特·拉塞尔 Kurt Russell
       杰克·瓦尔登 Jack Warden
       格里特·格雷厄姆 Gerrit Graham
       乔·弗莱厄蒂 Joe Flaherty
       Allen Wood Allen Wood
       伍德罗夫·帕弗雷 Woodrow Parfrey
       Cheryl Rixon Cheryl Rixon
       Josiah Steiner Josiah Steiner
       德博泰勒 Dub Taylor
       温迪·乔·斯佩博 Wendie Jo Sperber
       宾斯·莫洛克 Beans Morocco
       丽塔·塔格特 Rita Taggart
       Clint Lilley Clint Lilley
       Michael Talbott Michael Talbott
       Al Lewis Al Lewis
       马克·麦克卢尔 Marc McClure
       Buxx Banner Buxx Banner
       大卫·L·兰德尔 David L. Lander
       阿方索·阿雷奥 Alfonso Arau
       迪克·米勒 Dick Miller
       贝蒂·托马斯 Betty Thomas
       迈克尔·麦基恩 Michael McKean
       Gene Blakely Gene Blakely
       德博拉·哈蒙 Deborah Harmon
       特伦斯·诺克斯 Terence Knox
       弗兰克·麦克雷 Frank McRae
       花生 Peanuts
       约翰·米利厄斯 John Milius
       鲍勃·盖尔 Bob Gale
       John G. Wilson John G. Wilson
       帕特里克·威廉姆斯 Patrick Williams
       Donald M. Morgan Donald M. Morgan
       迈克尔·卡恩 Michael Kahn
       Sally Dennison Sally Dennison
       琳达·斯菲里斯 Linda Spheeris
       Jack H. Young Jack H. Young
       特里·伦纳德 Terry Leonard
◎简  介
  路克单独一人经营二手车场,鲁迪是其中的一位销售员。鲁迪为人疯狂豪宕,为了增加销售量进步业绩,他想尽奇招吸引顾客,甚至干违法的事。老板的弟弟罗伊狠毒奸滑,为了继续路克的产业和车场,他用奸计害死了路克。                                    
                                正当鲁迪为对于罗伊而挖空心机时,路克的女儿返来了。这下可有好戏看了,他们联手匹敌罗伊,一段出色绝伦的钩心斗角大战就此展开……
  1. Video
  2. ID                                       : 1
  3. Format                                   : HEVC
  4. Format/Info                              : High Efficiency Video Coding
  5. Format profile                           : Main [email protected]@Main
  6. HDR format                               : SMPTE ST 2086, HDR10 compatible
  7. Codec ID                                 : V_MPEGH/ISO/HEVC
  8. Duration                                 : 1 h 52 min
  9. Bit rate                                 : 8 021 kb/s
  10. Width                                    : 3 840 pixels
  11. Height                                   : 2 076 pixels
  12. Display aspect ratio                     : 1.85:1
  13. Frame rate mode                          : Constant
  14. Frame rate                               : 23.976 (24000/1001) FPS
  15. Color space                              : YUV
  16. Chroma subsampling                       : 4:2:0
  17. Bit depth                                : 10 bits
  18. Bits/(Pixel*Frame)                       : 0.042
  19. Stream size                              : 6.31 GiB (93%)
  20. Writing library                          : x265 3.5+rarbg-HDR-38-20255e6:[Linux][clang 16.0.0][64 bit] 10bit
  21. Encoding settings                        : cpuid=1111039 / frame-threads=6 / wpp / no-pmode / no-pme / no-psnr / no-ssim / log-level=2 / input-csp=1 / input-res=3840x2076 / interlace=0 / total-frames=0 / level-idc=51 / high-tier=1 / uhd-bd=0 / ref=4 / no-allow-non-conformance / repeat-headers / annexb / aud / no-eob / no-eos / no-hrd / info / hash=0 / no-temporal-layers / no-open-gop / min-keyint=1 / keyint=24 / gop-lookahead=0 / bframes=4 / b-adapt=2 / b-pyramid / bframe-bias=0 / rc-lookahead=25 / lookahead-slices=4 / scenecut=40 / no-hist-scenecut / radl=0 / no-splice / no-intra-refresh / ctu=64 / min-cu-size=8 / rect / no-amp / max-tu-size=32 / tu-inter-depth=1 / tu-intra-depth=1 / limit-tu=0 / rdoq-level=2 / dynamic-rd=0.00 / no-ssim-rd / signhide / no-tskip / nr-intra=0 / nr-inter=0 / no-constrained-intra / strong-intra-smoothing / max-merge=3 / limit-refs=3 / no-limit-modes / me=3 / subme=3 / merange=57 / temporal-mvp / no-frame-dup / no-hme / weightp / no-weightb / no-analyze-src-pics / deblock=0:0 / no-sao / no-sao-non-deblock / rd=4 / selective-sao=0 / no-early-skip / rskip / no-fast-intra / no-tskip-fast / no-cu-lossless / no-b-intra / no-splitrd-skip / rdpenalty=0 / psy-rd=2.00 / psy-rdoq=1.00 / no-rd-refine / no-lossless / cbqpoffs=0 / crqpoffs=0 / rc=abr / bitrate=8000 / qcomp=0.60 / qpstep=4 / stats-write=0 / stats-read=2 / cplxblur=20.0 / qblur=0.5 / ipratio=1.40 / pbratio=1.30 / aq-mode=1 / aq-strength=1.00 / cutree / zone-count=0 / no-strict-cbr / qg-size=32 / no-rc-grain / qpmax=69 / qpmin=0 / no-const-vbv / sar=1 / overscan=0 / videoformat=5 / range=0 / colorprim=9 / transfer=16 / colormatrix=9 / chromaloc=0 / display-window=0 / master-display=G(13250,34500)B(7500,3000)R(34000,16000)WP(15635,16450)L(10000000,1) / cll=997,224 / min-luma=0 / max-luma=1023 / log2-max-poc-lsb=8 / vui-timing-info / vui-hrd-info / slices=1 / no-opt-qp-pps / no-opt-ref-list-length-pps / no-multi-pass-opt-rps / scenecut-bias=0.05 / hist-threshold=0.03 / no-opt-cu-delta-qp / no-aq-motion / hdr10 / hdr10-opt / no-dhdr10-opt / no-idr-recovery-sei / analysis-reuse-level=0 / analysis-save-reuse-level=0 / analysis-load-reuse-level=0 / scale-factor=0 / refine-intra=0 / refine-inter=0 / refine-mv=1 / refine-ctu-distortion=0 / no-limit-sao / ctu-info=0 / no-lowpass-dct / refine-analysis-type=0 / copy-pic=1 / max-ausize-factor=1.0 / no-dynamic-refine / no-single-sei / no-hevc-aq / no-svt / no-field / qp-adaptation-range=1.00 / scenecut-aware-qp=0conformance-window-offsets / right=0 / bottom=0 / decoder-max-rate=0 / no-vbv-live-multi-pass
  22. Default                                  : Yes
  23. Forced                                   : No
  24. Color range                              : Limited
  25. Color primaries                          : BT.2020
  26. Transfer characteristics                 : PQ
  27. Matrix coefficients                      : BT.2020 non-constant
  28. Mastering display color primaries        : Display P3
  29. Mastering display luminance              : min: 0.0001 cd/m2, max: 1000 cd/m2
  30. Maximum Content Light Level              : 997 cd/m2
  31. Maximum Frame-Average Light Level        : 224 cd/m2
  32. Audio
  33. ID                                       : 2
  34. Format                                   : E-AC-3
  35. Format/Info                              : Enhanced AC-3
  36. Commercial name                          : Dolby Digital Plus
  37. Codec ID                                 : A_EAC3
  38. Duration                                 : 1 h 52 min
  39. Bit rate mode                            : Constant
  40. Bit rate                                 : 640 kb/s
  41. Channel(s)                               : 6 channels
  42. Channel layout                           : L R C LFE Ls Rs
  43. Sampling rate                            : 48.0 kHz
  44. Frame rate                               : 31.250 FPS (1536 SPF)
  45. Compression mode                         : Lossy
  46. Stream size                              : 516 MiB (7%)
  47. Title                                    : English DDP 5.1
  48. Language                                 : English
  49. Service kind                             : Complete Main
  50. Default                                  : Yes
  51. Forced                                   : No
  52. Text #1
  53. ID                                       : 3
  54. Format                                   : UTF-8
  55. Codec ID                                 : S_TEXT/UTF8
  56. Codec ID/Info                            : UTF-8 Plain Text
  57. Duration                                 : 1 h 52 min
  58. Bit rate                                 : 81 b/s
  59. Frame rate                               : 0.306 FPS
  60. Count of elements                        : 2071
  61. Stream size                              : 67.5 KiB (0%)
  62. Title                                    : English SRT
  63. Language                                 : English
  64. Default                                  : Yes
  65. Forced                                   : No
  66. Text #2
  67. ID                                       : 4
  68. Format                                   : UTF-8
  69. Codec ID                                 : S_TEXT/UTF8
  70. Codec ID/Info                            : UTF-8 Plain Text
  71. Duration                                 : 1 h 52 min
  72. Bit rate                                 : 90 b/s
  73. Frame rate                               : 0.345 FPS
  74. Count of elements                        : 2334
  75. Stream size                              : 74.8 KiB (0%)
  76. Title                                    : English SDH SRT
  77. Language                                 : English
  78. Default                                  : No
  79. Forced                                   : No
  80. Menu
  81. 00:00:00.000                             : en:Chapter 01
  82. 00:08:17.121                             : en:Chapter 02
  83. 00:16:51.093                             : en:Chapter 03
  84. 00:26:55.447                             : en:Chapter 04
  85. 00:36:14.380                             : en:Chapter 05
  86. 00:45:19.425                             : en:Chapter 06
  87. 00:52:12.546                             : en:Chapter 07
  88. 00:59:02.997                             : en:Chapter 08
  89. 01:08:28.270                             : en:Chapter 09
  90. 01:19:38.064                             : en:Chapter 10
  91. 01:30:45.565                             : en:Chapter 11
  92. 01:41:00.304                             : en:Chapter 12
  93. 01:52:38.835                             : en:Chapter 13
复制代码











回复

使用道具 举报

懒得打字嘛,点击右侧快捷回复 【右侧内容,后台自定义】
您需要登录后才可以回帖 登录 | 立即加入

本版积分规则

Archiver|小黑屋| 蓝光电影网 |网站地图

Copyright © 2021 Comsenz Inc. Powered by 蓝光电影网

蓝光电影网

本站内容由用户自主分享和转载自互联网,转载目的在于传递更多信息,并不代表本网赞同其观点和对其真实性负责。

如有侵权、违反国家法律政策行为,请联系我们,我们会第一时间及时清除和处理!

举报反馈邮箱:[email protected]

快速回复 返回顶部 返回列表