找回密码

蓝光电影网

查看: 32|回复: 0

[2160p] 火星人入侵记.Invaders.from.Mars.1953.2160p.UHD.BluRay.x265.10bit.HDR.FLAC.2.0-B0MBARDiERS 27.74GB

[复制链接]
蓝光币
1082
发表于 2023-1-11 22:03:41 | 显示全部楼层 |阅读模式


◎标  题 火星人入侵记
◎片  名 Invaders from Mars
◎年  代 1953
◎产  地 美国
◎类  别 科幻 / 可骇
◎语  言 英语
◎上映日期 1953-04-22
◎IMDb评分 6.3/10 (8136人评价)
◎IMDb链接 https://www.imdb.com/title/tt0045917/
◎豆瓣评分 6.3/10 (97人评价)
◎豆瓣链接 https://movie.douban.com/subject/2265798/
◎片  长 78 分钟 / UK: 83 分钟
◎导  演 威廉·卡梅伦·孟席斯 William Cameron Menzies
◎编  剧 约翰·塔克·巴特尔 John Tucker Battle
       理查德·布莱克 Richard Blake
◎演  员 Helena Carter Helena Carter
       阿瑟·弗兰兹 Arthur Franz
       吉米·亨特 Jimmy Hunt
       托德·卡恩茨 Todd Karns
       Luce Potter Luce Potter
       Lock Martin Lock Martin
       Harry Monty Harry Monty
       雅尼娜·佩罗 Janine Perreau
       Robert Shayne Robert Shayne
       沃尔特·桑德 Walter Sande
       米尔本·斯通 Milburn Stone
       Max Wagner Max Wagner
       弗兰克·维尔考克斯 Frank Wilcox
       Max Palmer Max Palmer
       Bob Herron Bob Herron
       Gil Herman Gil Herman
       菲·贝克 Fay Baker
       希拉里·布鲁克 Hillary Brooke
       道格拉斯肯尼迪 Douglas Kennedy
       利夫·埃里克森 Leif Erickson
       莫里斯·安克鲁姆 Morris Ankrum
       芭芭拉·比林斯利 Barbara Billingsley
       彼得·布罗科 Peter Brocco
       Charles Cane Charles Cane
       Tommy Cottonaro Tommy Cottonaro
       John Eldredge John Eldredge
       理查德·迪肯 Richard Deacon
       Pete Dunn Pete Dunn
       William Forrest William Forrest
       伯特·弗里德 Bert Freed
       威廉·菲普斯 William Phipps
◎简  介
    小大卫麦克林有一个题目——镇上一切的成年人在看到希奇的灯光在他家四周的一座小山后未几就起头做出希奇的行为。随着越来越多的成年人遭到影响,他必须向标致的布莱克医生追求庇护。终极,他必须以一个分歧平常的结论来面临自己的恐惧。
  1. Video
  2. ID                                       : 1
  3. Format                                   : HEVC
  4. Format/Info                              : High Efficiency Video Coding
  5. Format profile                           : Main [email protected]@High
  6. HDR format                               : SMPTE ST 2086, HDR10 compatible
  7. Codec ID                                 : V_MPEGH/ISO/HEVC
  8. Duration                                 : 1 h 19 min
  9. Bit rate                                 : 49.3 Mb/s
  10. Width                                    : 2 960 pixels
  11. Height                                   : 2 160 pixels
  12. Display aspect ratio                     : 1.370
  13. Frame rate mode                          : Constant
  14. Frame rate                               : 23.976 (24000/1001) FPS
  15. Color space                              : YUV
  16. Chroma subsampling                       : 4:2:0 (Type 2)
  17. Bit depth                                : 10 bits
  18. Bits/(Pixel*Frame)                       : 0.321
  19. Stream size                              : 27.4 GiB (99%)
  20. Writing library                          : x265 3.5+70-4da1198a9:[Windows][GCC 12.2.0][64 bit] 10bit
  21. Encoding settings                        : cpuid=1176575 / frame-threads=6 / numa-pools=36 / wpp / no-pmode / no-pme / no-psnr / no-ssim / log-level=2 / input-csp=1 / input-res=2960x2160 / interlace=0 / total-frames=114417 / level-idc=51 / high-tier=1 / uhd-bd=0 / ref=4 / no-allow-non-conformance / repeat-headers / annexb / aud / no-eob / no-eos / hrd / info / hash=0 / no-temporal-layers / open-gop / min-keyint=23 / keyint=250 / gop-lookahead=0 / bframes=4 / b-adapt=2 / b-pyramid / bframe-bias=0 / rc-lookahead=25 / lookahead-slices=4 / scenecut=40 / no-hist-scenecut / radl=0 / no-splice / no-intra-refresh / ctu=64 / min-cu-size=8 / rect / no-amp / max-tu-size=32 / tu-inter-depth=1 / tu-intra-depth=1 / limit-tu=0 / rdoq-level=2 / dynamic-rd=0.00 / no-ssim-rd / signhide / no-tskip / nr-intra=0 / nr-inter=0 / no-constrained-intra / strong-intra-smoothing / max-merge=3 / limit-refs=3 / limit-modes / me=3 / subme=3 / merange=57 / temporal-mvp / no-frame-dup / no-hme / weightp / no-weightb / no-analyze-src-pics / deblock=-3:-3 / no-sao / no-sao-non-deblock / rd=4 / selective-sao=0 / no-early-skip / rskip / no-fast-intra / no-tskip-fast / no-cu-lossless / no-b-intra / no-splitrd-skip / rdpenalty=0 / psy-rd=2.00 / psy-rdoq=1.00 / no-rd-refine / no-lossless / cbqpoffs=0 / crqpoffs=0 / rc=crf / crf=14.5 / qcomp=0.60 / qpstep=4 / stats-write=0 / stats-read=0 / vbv-maxrate=160000 / vbv-bufsize=160000 / vbv-init=0.9 / min-vbv-fullness=50.0 / max-vbv-fullness=80.0 / crf-max=0.0 / crf-min=0.0 / ipratio=1.40 / pbratio=1.30 / aq-mode=2 / aq-strength=1.00 / cutree / zone-count=0 / no-strict-cbr / qg-size=32 / no-rc-grain / qpmax=69 / qpmin=0 / no-const-vbv / sar=1 / overscan=0 / videoformat=5 / range=0 / colorprim=9 / transfer=16 / colormatrix=9 / chromaloc=1 / chromaloc-top=2 / chromaloc-bottom=2 / display-window=0 / master-display=G(8500,39850)B(6550,2300)R(35400,14600)WP(15635,16450)L(10000000,1) / cll=1000,678 / min-luma=0 / max-luma=1023 / log2-max-poc-lsb=8 / vui-timing-info / vui-hrd-info / slices=1 / no-opt-qp-pps / no-opt-ref-list-length-pps / no-multi-pass-opt-rps / scenecut-bias=0.05 / no-opt-cu-delta-qp / no-aq-motion / no-sbrc / hdr10 / hdr10-opt / no-dhdr10-opt / no-idr-recovery-sei / analysis-reuse-level=0 / analysis-save-reuse-level=0 / analysis-load-reuse-level=0 / scale-factor=0 / refine-intra=0 / refine-inter=0 / refine-mv=1 / refine-ctu-distortion=0 / no-limit-sao / ctu-info=0 / no-lowpass-dct / refine-analysis-type=0 / copy-pic=1 / max-ausize-factor=1.0 / no-dynamic-refine / no-single-sei / no-hevc-aq / no-svt / no-field / qp-adaptation-range=1.00 / scenecut-aware-qp=0conformance-window-offsets / right=0 / bottom=0 / decoder-max-rate=0 / no-vbv-live-multi-pass / no-mcstf
  22. Default                                  : Yes
  23. Forced                                   : No
  24. Color range                              : Limited
  25. Color primaries                          : BT.2020
  26. Transfer characteristics                 : PQ
  27. Matrix coefficients                      : BT.2020 non-constant
  28. Mastering display color primaries        : BT.2020
  29. Mastering display luminance              : min: 0.0001 cd/m2, max: 1000 cd/m2
  30. Maximum Content Light Level              : 1000 cd/m2
  31. Maximum Frame-Average Light Level        : 678 cd/m2
  32. Audio
  33. ID                                       : 2
  34. Format                                   : FLAC
  35. Format/Info                              : Free Lossless Audio Codec
  36. Codec ID                                 : A_FLAC
  37. Duration                                 : 1 h 19 min
  38. Bit rate mode                            : Variable
  39. Bit rate                                 : 595 kb/s
  40. Channel(s)                               : 2 channels
  41. Channel layout                           : L R
  42. Sampling rate                            : 48.0 kHz
  43. Frame rate                               : 11.719 FPS (4096 SPF)
  44. Bit depth                                : 24 bits
  45. Compression mode                         : Lossless
  46. Stream size                              : 339 MiB (1%)
  47. Writing library                          : libFLAC 1.2.1 (UTC 2007-09-17)
  48. Language                                 : English
  49. Default                                  : Yes
  50. Forced                                   : No
  51. MD5 of the unencoded content             : 515EDAC5167F815E211B013BBB3BEBC7
  52. Text #1
  53. ID                                       : 3
  54. Format                                   : PGS
  55. Muxing mode                              : zlib
  56. Codec ID                                 : S_HDMV/PGS
  57. Codec ID/Info                            : Picture based subtitle format used on BDs/HD-DVDs
  58. Duration                                 : 1 h 16 min
  59. Bit rate                                 : 41.1 kb/s
  60. Frame rate                               : 0.405 FPS
  61. Count of elements                        : 1868
  62. Stream size                              : 22.6 MiB (0%)
  63. Title                                    : English SDH
  64. Language                                 : English
  65. Default                                  : No
  66. Forced                                   : No
  67. Text #2
  68. ID                                       : 4
  69. Format                                   : PGS
  70. Muxing mode                              : zlib
  71. Codec ID                                 : S_HDMV/PGS
  72. Codec ID/Info                            : Picture based subtitle format used on BDs/HD-DVDs
  73. Duration                                 : 1 h 18 min
  74. Bit rate                                 : 35.8 kb/s
  75. Frame rate                               : 0.376 FPS
  76. Count of elements                        : 1764
  77. Stream size                              : 20.0 MiB (0%)
  78. Title                                    : French
  79. Language                                 : French
  80. Default                                  : No
  81. Forced                                   : No
  82. Text #3
  83. ID                                       : 5
  84. Format                                   : PGS
  85. Muxing mode                              : zlib
  86. Codec ID                                 : S_HDMV/PGS
  87. Codec ID/Info                            : Picture based subtitle format used on BDs/HD-DVDs
  88. Duration                                 : 1 h 18 min
  89. Bit rate                                 : 33.9 kb/s
  90. Frame rate                               : 0.367 FPS
  91. Count of elements                        : 1720
  92. Stream size                              : 18.9 MiB (0%)
  93. Title                                    : German
  94. Language                                 : German
  95. Default                                  : No
  96. Forced                                   : No
  97. Text #4
  98. ID                                       : 6
  99. Format                                   : PGS
  100. Muxing mode                              : zlib
  101. Codec ID                                 : S_HDMV/PGS
  102. Codec ID/Info                            : Picture based subtitle format used on BDs/HD-DVDs
  103. Duration                                 : 1 h 18 min
  104. Bit rate                                 : 36.0 kb/s
  105. Frame rate                               : 0.363 FPS
  106. Count of elements                        : 1700
  107. Stream size                              : 20.1 MiB (0%)
  108. Title                                    : Italian
  109. Language                                 : Italian
  110. Default                                  : No
  111. Forced                                   : No
  112. Text #5
  113. ID                                       : 7
  114. Format                                   : PGS
  115. Muxing mode                              : zlib
  116. Codec ID                                 : S_HDMV/PGS
  117. Codec ID/Info                            : Picture based subtitle format used on BDs/HD-DVDs
  118. Duration                                 : 1 h 18 min
  119. Bit rate                                 : 19.3 kb/s
  120. Frame rate                               : 0.400 FPS
  121. Count of elements                        : 1876
  122. Stream size                              : 10.8 MiB (0%)
  123. Title                                    : Japanese
  124. Language                                 : Japanese
  125. Default                                  : No
  126. Forced                                   : No
  127. Text #6
  128. ID                                       : 8
  129. Format                                   : PGS
  130. Muxing mode                              : zlib
  131. Codec ID                                 : S_HDMV/PGS
  132. Codec ID/Info                            : Picture based subtitle format used on BDs/HD-DVDs
  133. Duration                                 : 1 h 18 min
  134. Bit rate                                 : 27.8 kb/s
  135. Frame rate                               : 0.374 FPS
  136. Count of elements                        : 1754
  137. Stream size                              : 15.5 MiB (0%)
  138. Title                                    : Korean
  139. Language                                 : Korean
  140. Default                                  : No
  141. Forced                                   : No
  142. Menu
  143. 00:00:00.000                             : en:Chapter 01
  144. 00:07:19.898                             : en:Chapter 02
  145. 00:15:44.735                             : en:Chapter 03
  146. 00:19:28.793                             : en:Chapter 04
  147. 00:27:30.858                             : en:Chapter 05
  148. 00:35:13.486                             : en:Chapter 06
  149. 00:42:14.490                             : en:Chapter 07
  150. 00:46:57.023                             : en:Chapter 08
  151. 00:51:14.321                             : en:Chapter 09
  152. 00:59:16.470                             : en:Chapter 10
  153. 01:08:25.518                             : en:Chapter 11
  154. 01:14:39.475                             : en:Chapter 12
  155. 01:19:32.101                             : en:Chapter 13
复制代码











回复

使用道具 举报

懒得打字嘛,点击右侧快捷回复 【右侧内容,后台自定义】
您需要登录后才可以回帖 登录 | 立即加入

本版积分规则

Archiver|小黑屋| 蓝光电影网 |网站地图

Copyright © 2021 Comsenz Inc. Powered by 蓝光电影网

蓝光电影网

本站内容由用户自主分享和转载自互联网,转载目的在于传递更多信息,并不代表本网赞同其观点和对其真实性负责。

如有侵权、违反国家法律政策行为,请联系我们,我们会第一时间及时清除和处理!

举报反馈邮箱:[email protected]

快速回复 返回顶部 返回列表