找回密码

蓝光电影网

查看: 755|回复: 0

[剧情] 翘.Kieu.2021.VIETNAMESE.1080p.AMZN.WEBRip.DDP2.0.x264-RSG 5.18GB

[复制链接]
蓝光币
1704
发表于 2023-1-11 22:12:07 | 显示全部楼层 |阅读模式


◎标  题 翘
◎片  名 Kiều
◎年  代 2021
◎产  地 越南
◎类  别 剧情 / 古装
◎IMDb评分 4.3/10 (38人评价)
◎IMDb链接 https://www.imdb.com/title/tt14372330/
◎豆瓣链接 https://movie.douban.com/subject/35235402/
◎导  演 梅秋玄 Mai Thu Huyen
◎编  剧 阮攸 Du Nguyễn
◎演  员 程美媛 Mỹ Duyên Trình
       黎卿 Le Khanh
       芳清 Thanh Phuong
       高泰荷 Cao Thái Hà
◎简  介
  本片按照越南古典文学作品《翘传》(作者是19世纪初墨客阮攸)改编。                                       
                                    《翘传》,又称《断肠新声》是阮攸按照中国明末清初青心秀士原著小说《金云翘传》改编。作品首要应用越南本民族笔墨喃字和越南纯碎的古典格律诗“六八体”诗(一种用上六言,下八言写成的诗体)完成一篇长达3254句的叙事诗,是以,作品具有很强的“民族性”,表现着“貉鸿子孙”的“国魂”与“国髓”。                                       
                                    《翘传》首要论述身世书香门第的王翠翘平生坎坷的生活和遭受。她身世名门,才貌出众并与墨客金重私订毕生。可在金重奔丧时代,她为救遭诬堕入狱的父亲而卖身,不意上当,沉溺青楼。阮攸却已超出那时浓厚的社会偏见,去歌颂王翠翘文雅的身段,特别那美丽的心灵。长诗经过王翠翘这小我物所受尽的历经十五年的磨难,来突出十八世纪末和十九世纪初的社会真相,以及存在的诸多社会弊端,最明显的即是权要败北,品级森严等的社会题目。控诉了腐...
  1. Video
  2. ID                                       : 1
  3. Format                                   : AVC
  4. Format/Info                              : Advanced Video Codec
  5. Format profile                           : High@L4
  6. Format settings                          : CABAC / 4 Ref Frames
  7. Format settings, CABAC                   : Yes
  8. Format settings, Reference frames        : 4 frames
  9. Codec ID                                 : V_MPEG4/ISO/AVC
  10. Duration                                 : 1 h 27 min
  11. Bit rate mode                            : Constant
  12. Bit rate                                 : 8 214 kb/s
  13. Nominal bit rate                         : 10 000 kb/s
  14. Width                                    : 1 920 pixels
  15. Height                                   : 800 pixels
  16. Display aspect ratio                     : 2.40:1
  17. Frame rate mode                          : Constant
  18. Frame rate                               : 24.000 FPS
  19. Color space                              : YUV
  20. Chroma subsampling                       : 4:2:0
  21. Bit depth                                : 8 bits
  22. Scan type                                : Progressive
  23. Bits/(Pixel*Frame)                       : 0.223
  24. Stream size                              : 5.04 GiB (97%)
  25. Default                                  : Yes
  26. Forced                                   : No
  27. Color range                              : Limited
  28. Color primaries                          : BT.709
  29. Transfer characteristics                 : BT.709
  30. Matrix coefficients                      : BT.709
  31. Audio
  32. ID                                       : 2
  33. Format                                   : E-AC-3
  34. Format/Info                              : Enhanced AC-3
  35. Commercial name                          : Dolby Digital Plus
  36. Codec ID                                 : A_EAC3
  37. Duration                                 : 1 h 27 min
  38. Bit rate mode                            : Constant
  39. Bit rate                                 : 224 kb/s
  40. Channel(s)                               : 2 channels
  41. Channel layout                           : L R
  42. Sampling rate                            : 48.0 kHz
  43. Frame rate                               : 31.250 FPS (1536 SPF)
  44. Compression mode                         : Lossy
  45. Stream size                              : 141 MiB (3%)
  46. Language                                 : Vietnamese
  47. Service kind                             : Complete Main
  48. Default                                  : Yes
  49. Forced                                   : No
  50. Text
  51. ID                                       : 3
  52. Format                                   : UTF-8
  53. Codec ID                                 : S_TEXT/UTF8
  54. Codec ID/Info                            : UTF-8 Plain Text
  55. Duration                                 : 1 h 27 min
  56. Bit rate                                 : 27 b/s
  57. Frame rate                               : 0.127 FPS
  58. Count of elements                        : 669
  59. Stream size                              : 17.7 KiB (0%)
  60. Language                                 : English
  61. Default                                  : Yes
  62. Forced                                   : No
复制代码











回复

使用道具 举报

懒得打字嘛,点击右侧快捷回复 【右侧内容,后台自定义】
您需要登录后才可以回帖 登录 | 立即加入

本版积分规则

Archiver|小黑屋| 蓝光电影网 |网站地图

Copyright © 2021 Comsenz Inc. Powered by 蓝光电影网

蓝光电影网

本站内容由用户自主分享和转载自互联网,转载目的在于传递更多信息,并不代表本网赞同其观点和对其真实性负责。

如有侵权、违反国家法律政策行为,请联系我们,我们会第一时间及时清除和处理!

举报反馈邮箱:4k1080.com@gmail.com

快速回复 返回顶部 返回列表