找回密码

蓝光电影网

查看: 28|回复: 0

[喜剧] 海蒂也疯狂.Mad.Heidi.2022.1080p.WEBRip.DDP2.0.x264-SHD 15.17GB

[复制链接]
蓝光币
1084
发表于 2023-1-11 22:12:07 | 显示全部楼层 |阅读模式


◎标  题 海蒂也疯狂
◎译  名 Heidiland
◎片  名 Mad Heidi
◎年  代 2022
◎产  地 瑞士
◎类  别 笑剧 / 行动 / 可骇 / 奇异 / 冒险
◎语  言 英语 / 瑞士德语
◎上映日期 2022-09-07(布鲁塞尔国际奇异影展) / 2022-11-24(瑞士)
◎IMDb评分 5.8/10 (1140人评价)
◎IMDb链接 https://www.imdb.com/title/tt2943178/
◎豆瓣链接 https://movie.douban.com/subject/27072790/
◎片  长 92分钟
◎导  演 约翰内斯·哈特曼 Johannes Hartmann
       桑德罗·克洛普夫斯坦 Sandro Klopfstein
◎编  剧 桑德罗·克洛普夫斯坦 Sandro Klopfstein
       约翰内斯·哈特曼 Johannes Hartmann
       格雷戈里·D·威德默 Gregory D. Widmer
       特伦特·海伽 Trent Haaga
◎演  员 爱丽丝·露西 Alice Lucy
       大卫·斯科菲尔德 David Schofield
       卡斯帕·范·迪恩 Casper Van Dien
       Max Rüdlinger Max Rüdlinger
       Pascal Ulli Pascal Ulli
       卡塔·科尔姆 Katja Kolm
       Dominique Jann Dominique Jann
       米洛·莫蕾 Milo Moiré
       菲利普·舒勒 Philippe Schuler
       克莱门斯·特伦克尔 Klemens Trenkle
◎简  介
  影片恶搞自著名的《海蒂和爷爷》 ,报告在一个被邪恶的奶酪暴君法西斯统治的反乌托邦的瑞士,海蒂在阿尔卑斯山过着纯真的生活。爷爷Alpöhi尽他最大的尽力庇护海蒂,但她对自在的渴望很快使她堕入了麻烦。这个天真的女孩把自己酿成了一个复仇女神,她要扑灭阻挡她的一切。
  1. Video
  2. ID                                       : 1
  3. Format                                   : AVC
  4. Format/Info                              : Advanced Video Codec
  5. Format profile                           : [email protected]
  6. Format settings                          : CABAC / 5 Ref Frames
  7. Format settings, CABAC                   : Yes
  8. Format settings, Reference frames        : 5 frames
  9. Codec ID                                 : V_MPEG4/ISO/AVC
  10. Duration                                 : 1 h 32 min
  11. Bit rate                                 : 21.7 Mb/s
  12. Width                                    : 2 048 pixels
  13. Height                                   : 806 pixels
  14. Display aspect ratio                     : 2.541
  15. Frame rate mode                          : Constant
  16. Frame rate                               : 24.000 FPS
  17. Color space                              : YUV
  18. Chroma subsampling                       : 4:2:0
  19. Bit depth                                : 8 bits
  20. Scan type                                : Progressive
  21. Bits/(Pixel*Frame)                       : 0.548
  22. Stream size                              : 14.1 GiB (93%)
  23. Title                                    : #SHD.TiTAN
  24. Default                                  : Yes
  25. Forced                                   : No
  26. Color range                              : Limited
  27. Color primaries                          : BT.709
  28. Transfer characteristics                 : BT.709
  29. Matrix coefficients                      : BT.709
  30. Audio #1
  31. ID                                       : 2
  32. Format                                   : E-AC-3
  33. Format/Info                              : Enhanced AC-3
  34. Commercial name                          : Dolby Digital Plus
  35. Codec ID                                 : A_EAC3
  36. Duration                                 : 1 h 32 min
  37. Bit rate mode                            : Constant
  38. Bit rate                                 : 1 024 kb/s
  39. Channel(s)                               : 2 channels
  40. Channel layout                           : L R
  41. Sampling rate                            : 48.0 kHz
  42. Frame rate                               : 62.500 FPS (768 SPF)
  43. Compression mode                         : Lossy
  44. Stream size                              : 680 MiB (4%)
  45. Title                                    : DDP 2.0
  46. Language                                 : English
  47. Service kind                             : Complete Main
  48. Default                                  : Yes
  49. Forced                                   : No
  50. Audio #2
  51. ID                                       : 3
  52. Format                                   : AC-3
  53. Format/Info                              : Audio Coding 3
  54. Commercial name                          : Dolby Digital
  55. Codec ID                                 : A_AC3
  56. Duration                                 : 1 h 32 min
  57. Bit rate mode                            : Constant
  58. Bit rate                                 : 640 kb/s
  59. Channel(s)                               : 2 channels
  60. Channel layout                           : L R
  61. Sampling rate                            : 48.0 kHz
  62. Frame rate                               : 31.250 FPS (1536 SPF)
  63. Compression mode                         : Lossy
  64. Stream size                              : 425 MiB (3%)
  65. Title                                    : DD 2.0
  66. Language                                 : English
  67. Service kind                             : Complete Main
  68. Default                                  : No
  69. Forced                                   : No
  70. Text #1
  71. ID                                       : 4
  72. Format                                   : UTF-8
  73. Codec ID                                 : S_TEXT/UTF8
  74. Codec ID/Info                            : UTF-8 Plain Text
  75. Duration                                 : 1 h 23 min
  76. Bit rate                                 : 34 b/s
  77. Frame rate                               : 0.137 FPS
  78. Count of elements                        : 683
  79. Stream size                              : 21.2 KiB (0%)
  80. Language                                 : English
  81. Default                                  : No
  82. Forced                                   : No
  83. Text #2
  84. ID                                       : 5
  85. Format                                   : UTF-8
  86. Codec ID                                 : S_TEXT/UTF8
  87. Codec ID/Info                            : UTF-8 Plain Text
  88. Duration                                 : 1 h 26 min
  89. Bit rate                                 : 39 b/s
  90. Frame rate                               : 0.142 FPS
  91. Count of elements                        : 738
  92. Stream size                              : 25.1 KiB (0%)
  93. Language                                 : German
  94. Default                                  : No
  95. Forced                                   : No
  96. Text #3
  97. ID                                       : 6
  98. Format                                   : UTF-8
  99. Codec ID                                 : S_TEXT/UTF8
  100. Codec ID/Info                            : UTF-8 Plain Text
  101. Duration                                 : 1 h 27 min
  102. Bit rate                                 : 34 b/s
  103. Frame rate                               : 0.148 FPS
  104. Count of elements                        : 773
  105. Stream size                              : 22.2 KiB (0%)
  106. Language                                 : French
  107. Default                                  : No
  108. Forced                                   : No
  109. Text #4
  110. ID                                       : 7
  111. Format                                   : UTF-8
  112. Codec ID                                 : S_TEXT/UTF8
  113. Codec ID/Info                            : UTF-8 Plain Text
  114. Duration                                 : 1 h 26 min
  115. Bit rate                                 : 34 b/s
  116. Frame rate                               : 0.133 FPS
  117. Count of elements                        : 689
  118. Stream size                              : 21.7 KiB (0%)
  119. Language                                 : Italian
  120. Default                                  : No
  121. Forced                                   : No
  122. Text #5
  123. ID                                       : 8
  124. Format                                   : UTF-8
  125. Codec ID                                 : S_TEXT/UTF8
  126. Codec ID/Info                            : UTF-8 Plain Text
  127. Duration                                 : 1 h 23 min
  128. Bit rate                                 : 43 b/s
  129. Frame rate                               : 0.137 FPS
  130. Count of elements                        : 683
  131. Stream size                              : 26.6 KiB (0%)
  132. Language                                 : Japanese
  133. Default                                  : No
  134. Forced                                   : No
  135. Text #6
  136. ID                                       : 9
  137. Format                                   : UTF-8
  138. Codec ID                                 : S_TEXT/UTF8
  139. Codec ID/Info                            : UTF-8 Plain Text
  140. Duration                                 : 1 h 26 min
  141. Bit rate                                 : 32 b/s
  142. Frame rate                               : 0.139 FPS
  143. Count of elements                        : 726
  144. Stream size                              : 20.7 KiB (0%)
  145. Language                                 : Spanish
  146. Default                                  : No
  147. Forced                                   : No
  148. Text #7
  149. ID                                       : 10
  150. Format                                   : UTF-8
  151. Codec ID                                 : S_TEXT/UTF8
  152. Codec ID/Info                            : UTF-8 Plain Text
  153. Duration                                 : 1 h 31 min
  154. Bit rate                                 : 29 b/s
  155. Frame rate                               : 0.129 FPS
  156. Count of elements                        : 708
  157. Stream size                              : 19.7 KiB (0%)
  158. Language                                 : Catalan
  159. Default                                  : No
  160. Forced                                   : No
复制代码











回复

使用道具 举报

懒得打字嘛,点击右侧快捷回复 【右侧内容,后台自定义】
您需要登录后才可以回帖 登录 | 立即加入

本版积分规则

Archiver|小黑屋| 蓝光电影网 |网站地图

Copyright © 2021 Comsenz Inc. Powered by 蓝光电影网

蓝光电影网

本站内容由用户自主分享和转载自互联网,转载目的在于传递更多信息,并不代表本网赞同其观点和对其真实性负责。

如有侵权、违反国家法律政策行为,请联系我们,我们会第一时间及时清除和处理!

举报反馈邮箱:[email protected]

快速回复 返回顶部 返回列表