找回密码

蓝光电影网

查看: 18|回复: 0

[其他] 挥斧头的搭车人:从英雄到杀人犯[中文字幕].The.Hatchet.Wielding.Hitchhiker.2023.1080p.NF.WEBRip.DDP5.1.Atmos.x264-SMURF 2.42GB

[复制链接]
蓝光币
1080
发表于 2023-1-11 22:12:09 | 显示全部楼层 |阅读模式


◎标  题 挥斧头的搭车人:从豪杰到杀人犯
◎片  名 The Hatchet Wielding Hitchhiker
◎年  代 2023
◎产  地 美国
◎类  别 记载片 / 犯罪
◎语  言 英语
◎上映日期 2023-01-10(英国收集)
◎IMDb评分 7.1/10 (8人评价)
◎IMDb链接 https://www.imdb.com/title/tt24509990/
◎豆瓣链接 https://movie.douban.com/subject/36204766/
◎片  长 87分钟
◎简  介
    这部震动民气的记载片报告了一位乐天的流浪汉若何在网上爆红,又若何一落千丈并终极入狱的故事。
  1. Video
  2. ID                                       : 1
  3. Format                                   : AVC
  4. Format/Info                              : Advanced Video Codec
  5. Format profile                           : [email protected]
  6. Format settings                          : CABAC / 3 Ref Frames
  7. Format settings, CABAC                   : Yes
  8. Format settings, Reference frames        : 3 frames
  9. Codec ID                                 : V_MPEG4/ISO/AVC
  10. Duration                                 : 1 h 27 min
  11. Bit rate mode                            : Variable
  12. Bit rate                                 : 3 192 kb/s
  13. Nominal bit rate                         : 2 841 kb/s
  14. Maximum bit rate                         : 6 030 kb/s
  15. Width                                    : 1 920 pixels
  16. Height                                   : 1 080 pixels
  17. Display aspect ratio                     : 16:9
  18. Frame rate mode                          : Constant
  19. Frame rate                               : 23.976 (24000/1001) FPS
  20. Color space                              : YUV
  21. Chroma subsampling                       : 4:2:0
  22. Bit depth                                : 8 bits
  23. Scan type                                : Progressive
  24. Bits/(Pixel*Frame)                       : 0.064
  25. Stream size                              : 1.95 GiB (80%)
  26. Writing library                          : x264 core 148 r2727 7d026e8
  27. Encoding settings                        : cabac=1 / ref=3 / deblock=1:0:0 / analyse=0x1:0x111 / me=umh / subme=10 / psy=1 / psy_rd=1.00:0.00 / mixed_ref=1 / me_range=24 / chroma_me=1 / trellis=2 / 8x8dct=0 / cqm=0 / deadzone=21,11 / fast_pskip=1 / chroma_qp_offset=-2 / threads=8 / lookahead_threads=1 / sliced_threads=0 / nr=0 / decimate=1 / interlaced=0 / bluray_compat=0 / stitchable=1 / constrained_intra=0 / bframes=2 / b_pyramid=0 / b_adapt=2 / b_bias=0 / direct=3 / weightb=1 / open_gop=0 / weightp=2 / keyint=250 / keyint_min=23 / scenecut=0 / intra_refresh=0 / rc_lookahead=48 / rc=2pass / mbtree=1 / bitrate=2841 / ratetol=1.0 / qcomp=0.50 / qpmin=6 / qpmax=51 / qpstep=4 / cplxblur=20.0 / qblur=0.5 / vbv_maxrate=6030 / vbv_bufsize=8040 / nal_hrd=vbr / filler=0 / ip_ratio=1.40 / aq=1:1.00
  28. Language                                 : English
  29. Default                                  : Yes
  30. Forced                                   : No
  31. Audio
  32. ID                                       : 2
  33. Format                                   : E-AC-3 JOC
  34. Format/Info                              : Enhanced AC-3 with Joint Object Coding
  35. Commercial name                          : Dolby Digital Plus with Dolby Atmos
  36. Codec ID                                 : A_EAC3
  37. Duration                                 : 1 h 27 min
  38. Bit rate mode                            : Constant
  39. Bit rate                                 : 768 kb/s
  40. Channel(s)                               : 6 channels
  41. Channel layout                           : L R C LFE Ls Rs
  42. Sampling rate                            : 48.0 kHz
  43. Frame rate                               : 31.250 FPS (1536 SPF)
  44. Compression mode                         : Lossy
  45. Stream size                              : 479 MiB (19%)
  46. Language                                 : English
  47. Service kind                             : Complete Main
  48. Default                                  : Yes
  49. Forced                                   : No
  50. Complexity index                         : 16
  51. Number of dynamic objects                : 15
  52. Bed channel count                        : 1 channel
  53. Bed channel configuration                : LFE
  54. Text #1
  55. ID                                       : 3
  56. Format                                   : UTF-8
  57. Codec ID                                 : S_TEXT/UTF8
  58. Codec ID/Info                            : UTF-8 Plain Text
  59. Duration                                 : 1 h 21 min
  60. Bit rate                                 : 33 b/s
  61. Frame rate                               : 0.090 FPS
  62. Count of elements                        : 443
  63. Stream size                              : 19.8 KiB (0%)
  64. Title                                    : Forced
  65. Language                                 : English
  66. Default                                  : Yes
  67. Forced                                   : Yes
  68. Text #2
  69. ID                                       : 4
  70. Format                                   : UTF-8
  71. Codec ID                                 : S_TEXT/UTF8
  72. Codec ID/Info                            : UTF-8 Plain Text
  73. Duration                                 : 1 h 24 min
  74. Bit rate                                 : 112 b/s
  75. Frame rate                               : 0.298 FPS
  76. Count of elements                        : 1503
  77. Stream size                              : 69.1 KiB (0%)
  78. Language                                 : English
  79. Default                                  : No
  80. Forced                                   : No
  81. Text #3
  82. ID                                       : 5
  83. Format                                   : UTF-8
  84. Codec ID                                 : S_TEXT/UTF8
  85. Codec ID/Info                            : UTF-8 Plain Text
  86. Duration                                 : 1 h 24 min
  87. Bit rate                                 : 118 b/s
  88. Frame rate                               : 0.311 FPS
  89. Count of elements                        : 1571
  90. Stream size                              : 73.1 KiB (0%)
  91. Title                                    : SDH
  92. Language                                 : English
  93. Default                                  : No
  94. Forced                                   : No
  95. Text #4
  96. ID                                       : 6
  97. Format                                   : UTF-8
  98. Codec ID                                 : S_TEXT/UTF8
  99. Codec ID/Info                            : UTF-8 Plain Text
  100. Duration                                 : 1 h 25 min
  101. Bit rate                                 : 171 b/s
  102. Frame rate                               : 0.294 FPS
  103. Count of elements                        : 1513
  104. Stream size                              : 108 KiB (0%)
  105. Language                                 : Arabic
  106. Default                                  : No
  107. Forced                                   : No
  108. Text #5
  109. ID                                       : 7
  110. Format                                   : UTF-8
  111. Codec ID                                 : S_TEXT/UTF8
  112. Codec ID/Info                            : UTF-8 Plain Text
  113. Duration                                 : 1 h 25 min
  114. Bit rate                                 : 98 b/s
  115. Frame rate                               : 0.297 FPS
  116. Count of elements                        : 1530
  117. Stream size                              : 61.7 KiB (0%)
  118. Language                                 : Czech
  119. Default                                  : No
  120. Forced                                   : No
  121. Text #6
  122. ID                                       : 8
  123. Format                                   : UTF-8
  124. Codec ID                                 : S_TEXT/UTF8
  125. Codec ID/Info                            : UTF-8 Plain Text
  126. Duration                                 : 1 h 25 min
  127. Bit rate                                 : 95 b/s
  128. Frame rate                               : 0.260 FPS
  129. Count of elements                        : 1338
  130. Stream size                              : 59.7 KiB (0%)
  131. Language                                 : Danish
  132. Default                                  : No
  133. Forced                                   : No
  134. Text #7
  135. ID                                       : 9
  136. Format                                   : UTF-8
  137. Codec ID                                 : S_TEXT/UTF8
  138. Codec ID/Info                            : UTF-8 Plain Text
  139. Duration                                 : 1 h 25 min
  140. Bit rate                                 : 101 b/s
  141. Frame rate                               : 0.287 FPS
  142. Count of elements                        : 1479
  143. Stream size                              : 63.5 KiB (0%)
  144. Language                                 : German
  145. Default                                  : No
  146. Forced                                   : No
  147. Text #8
  148. ID                                       : 10
  149. Format                                   : UTF-8
  150. Codec ID                                 : S_TEXT/UTF8
  151. Codec ID/Info                            : UTF-8 Plain Text
  152. Duration                                 : 1 h 25 min
  153. Bit rate                                 : 163 b/s
  154. Frame rate                               : 0.315 FPS
  155. Count of elements                        : 1624
  156. Stream size                              : 103 KiB (0%)
  157. Language                                 : Greek
  158. Default                                  : No
  159. Forced                                   : No
  160. Text #9
  161. ID                                       : 11
  162. Format                                   : UTF-8
  163. Codec ID                                 : S_TEXT/UTF8
  164. Codec ID/Info                            : UTF-8 Plain Text
  165. Duration                                 : 1 h 25 min
  166. Bit rate                                 : 92 b/s
  167. Frame rate                               : 0.285 FPS
  168. Count of elements                        : 1469
  169. Stream size                              : 58.3 KiB (0%)
  170. Title                                    : Latin American
  171. Language                                 : Spanish (Latin America)
  172. Default                                  : No
  173. Forced                                   : No
  174. Text #10
  175. ID                                       : 12
  176. Format                                   : UTF-8
  177. Codec ID                                 : S_TEXT/UTF8
  178. Codec ID/Info                            : UTF-8 Plain Text
  179. Duration                                 : 1 h 25 min
  180. Bit rate                                 : 94 b/s
  181. Frame rate                               : 0.286 FPS
  182. Count of elements                        : 1472
  183. Stream size                              : 59.4 KiB (0%)
  184. Language                                 : Spanish (ES)
  185. Default                                  : No
  186. Forced                                   : No
  187. Text #11
  188. ID                                       : 13
  189. Format                                   : UTF-8
  190. Codec ID                                 : S_TEXT/UTF8
  191. Codec ID/Info                            : UTF-8 Plain Text
  192. Duration                                 : 1 h 25 min
  193. Bit rate                                 : 93 b/s
  194. Frame rate                               : 0.238 FPS
  195. Count of elements                        : 1225
  196. Stream size                              : 58.6 KiB (0%)
  197. Language                                 : Finnish
  198. Default                                  : No
  199. Forced                                   : No
  200. Text #12
  201. ID                                       : 14
  202. Format                                   : UTF-8
  203. Codec ID                                 : S_TEXT/UTF8
  204. Codec ID/Info                            : UTF-8 Plain Text
  205. Duration                                 : 1 h 25 min
  206. Bit rate                                 : 103 b/s
  207. Frame rate                               : 0.272 FPS
  208. Count of elements                        : 1399
  209. Stream size                              : 65.1 KiB (0%)
  210. Language                                 : fil
  211. Default                                  : No
  212. Forced                                   : No
  213. Text #13
  214. ID                                       : 15
  215. Format                                   : UTF-8
  216. Codec ID                                 : S_TEXT/UTF8
  217. Codec ID/Info                            : UTF-8 Plain Text
  218. Duration                                 : 1 h 25 min
  219. Bit rate                                 : 99 b/s
  220. Frame rate                               : 0.280 FPS
  221. Count of elements                        : 1442
  222. Stream size                              : 62.4 KiB (0%)
  223. Language                                 : French
  224. Default                                  : No
  225. Forced                                   : No
  226. Text #14
  227. ID                                       : 16
  228. Format                                   : UTF-8
  229. Codec ID                                 : S_TEXT/UTF8
  230. Codec ID/Info                            : UTF-8 Plain Text
  231. Duration                                 : 1 h 25 min
  232. Bit rate                                 : 148 b/s
  233. Frame rate                               : 0.300 FPS
  234. Count of elements                        : 1546
  235. Stream size                              : 93.6 KiB (0%)
  236. Language                                 : Hebrew
  237. Default                                  : No
  238. Forced                                   : No
  239. Text #15
  240. ID                                       : 17
  241. Format                                   : UTF-8
  242. Codec ID                                 : S_TEXT/UTF8
  243. Codec ID/Info                            : UTF-8 Plain Text
  244. Duration                                 : 1 h 25 min
  245. Bit rate                                 : 87 b/s
  246. Frame rate                               : 0.284 FPS
  247. Count of elements                        : 1463
  248. Stream size                              : 55.0 KiB (0%)
  249. Language                                 : Croatian
  250. Default                                  : No
  251. Forced                                   : No
  252. Text #16
  253. ID                                       : 18
  254. Format                                   : UTF-8
  255. Codec ID                                 : S_TEXT/UTF8
  256. Codec ID/Info                            : UTF-8 Plain Text
  257. Duration                                 : 1 h 25 min
  258. Bit rate                                 : 100 b/s
  259. Frame rate                               : 0.284 FPS
  260. Count of elements                        : 1460
  261. Stream size                              : 63.4 KiB (0%)
  262. Language                                 : Hungarian
  263. Default                                  : No
  264. Forced                                   : No
  265. Text #17
  266. ID                                       : 19
  267. Format                                   : UTF-8
  268. Codec ID                                 : S_TEXT/UTF8
  269. Codec ID/Info                            : UTF-8 Plain Text
  270. Duration                                 : 1 h 25 min
  271. Bit rate                                 : 96 b/s
  272. Frame rate                               : 0.277 FPS
  273. Count of elements                        : 1426
  274. Stream size                              : 60.8 KiB (0%)
  275. Language                                 : Indonesian
  276. Default                                  : No
  277. Forced                                   : No
  278. Text #18
  279. ID                                       : 20
  280. Format                                   : UTF-8
  281. Codec ID                                 : S_TEXT/UTF8
  282. Codec ID/Info                            : UTF-8 Plain Text
  283. Duration                                 : 1 h 25 min
  284. Bit rate                                 : 97 b/s
  285. Frame rate                               : 0.291 FPS
  286. Count of elements                        : 1497
  287. Stream size                              : 61.6 KiB (0%)
  288. Language                                 : Italian
  289. Default                                  : No
  290. Forced                                   : No
  291. Text #19
  292. ID                                       : 21
  293. Format                                   : UTF-8
  294. Codec ID                                 : S_TEXT/UTF8
  295. Codec ID/Info                            : UTF-8 Plain Text
  296. Duration                                 : 1 h 25 min
  297. Bit rate                                 : 100 b/s
  298. Frame rate                               : 0.286 FPS
  299. Count of elements                        : 1471
  300. Stream size                              : 63.5 KiB (0%)
  301. Language                                 : Japanese
  302. Default                                  : No
  303. Forced                                   : No
  304. Text #20
  305. ID                                       : 22
  306. Format                                   : UTF-8
  307. Codec ID                                 : S_TEXT/UTF8
  308. Codec ID/Info                            : UTF-8 Plain Text
  309. Duration                                 : 1 h 25 min
  310. Bit rate                                 : 134 b/s
  311. Frame rate                               : 0.329 FPS
  312. Count of elements                        : 1696
  313. Stream size                              : 84.8 KiB (0%)
  314. Language                                 : Korean
  315. Default                                  : No
  316. Forced                                   : No
  317. Text #21
  318. ID                                       : 23
  319. Format                                   : UTF-8
  320. Codec ID                                 : S_TEXT/UTF8
  321. Codec ID/Info                            : UTF-8 Plain Text
  322. Duration                                 : 1 h 25 min
  323. Bit rate                                 : 98 b/s
  324. Frame rate                               : 0.285 FPS
  325. Count of elements                        : 1470
  326. Stream size                              : 62.0 KiB (0%)
  327. Language                                 : Malay
  328. Default                                  : No
  329. Forced                                   : No
  330. Text #22
  331. ID                                       : 24
  332. Format                                   : UTF-8
  333. Codec ID                                 : S_TEXT/UTF8
  334. Codec ID/Info                            : UTF-8 Plain Text
  335. Duration                                 : 1 h 25 min
  336. Bit rate                                 : 91 b/s
  337. Frame rate                               : 0.278 FPS
  338. Count of elements                        : 1420
  339. Stream size                              : 57.3 KiB (0%)
  340. Language                                 : Norwegian Bokmal
  341. Default                                  : No
  342. Forced                                   : No
  343. Text #23
  344. ID                                       : 25
  345. Format                                   : UTF-8
  346. Codec ID                                 : S_TEXT/UTF8
  347. Codec ID/Info                            : UTF-8 Plain Text
  348. Duration                                 : 1 h 25 min
  349. Bit rate                                 : 101 b/s
  350. Frame rate                               : 0.249 FPS
  351. Count of elements                        : 1282
  352. Stream size                              : 63.5 KiB (0%)
  353. Language                                 : Dutch
  354. Default                                  : No
  355. Forced                                   : No
  356. Text #24
  357. ID                                       : 26
  358. Format                                   : UTF-8
  359. Codec ID                                 : S_TEXT/UTF8
  360. Codec ID/Info                            : UTF-8 Plain Text
  361. Duration                                 : 1 h 25 min
  362. Bit rate                                 : 92 b/s
  363. Frame rate                               : 0.288 FPS
  364. Count of elements                        : 1481
  365. Stream size                              : 57.9 KiB (0%)
  366. Language                                 : Polish
  367. Default                                  : No
  368. Forced                                   : No
  369. Text #25
  370. ID                                       : 27
  371. Format                                   : UTF-8
  372. Codec ID                                 : S_TEXT/UTF8
  373. Codec ID/Info                            : UTF-8 Plain Text
  374. Duration                                 : 1 h 25 min
  375. Bit rate                                 : 99 b/s
  376. Frame rate                               : 0.302 FPS
  377. Count of elements                        : 1554
  378. Stream size                              : 62.7 KiB (0%)
  379. Title                                    : Brazilian
  380. Language                                 : Portuguese (BR)
  381. Default                                  : No
  382. Forced                                   : No
  383. Text #26
  384. ID                                       : 28
  385. Format                                   : UTF-8
  386. Codec ID                                 : S_TEXT/UTF8
  387. Codec ID/Info                            : UTF-8 Plain Text
  388. Duration                                 : 1 h 25 min
  389. Bit rate                                 : 101 b/s
  390. Frame rate                               : 0.296 FPS
  391. Count of elements                        : 1525
  392. Stream size                              : 63.9 KiB (0%)
  393. Language                                 : Portuguese (PT)
  394. Default                                  : No
  395. Forced                                   : No
  396. Text #27
  397. ID                                       : 29
  398. Format                                   : UTF-8
  399. Codec ID                                 : S_TEXT/UTF8
  400. Codec ID/Info                            : UTF-8 Plain Text
  401. Duration                                 : 1 h 25 min
  402. Bit rate                                 : 106 b/s
  403. Frame rate                               : 0.275 FPS
  404. Count of elements                        : 1407
  405. Stream size                              : 66.4 KiB (0%)
  406. Language                                 : Romanian
  407. Default                                  : No
  408. Forced                                   : No
  409. Text #28
  410. ID                                       : 30
  411. Format                                   : UTF-8
  412. Codec ID                                 : S_TEXT/UTF8
  413. Codec ID/Info                            : UTF-8 Plain Text
  414. Duration                                 : 1 h 25 min
  415. Bit rate                                 : 161 b/s
  416. Frame rate                               : 0.302 FPS
  417. Count of elements                        : 1554
  418. Stream size                              : 102 KiB (0%)
  419. Language                                 : Russian
  420. Default                                  : No
  421. Forced                                   : No
  422. Text #29
  423. ID                                       : 31
  424. Format                                   : UTF-8
  425. Codec ID                                 : S_TEXT/UTF8
  426. Codec ID/Info                            : UTF-8 Plain Text
  427. Duration                                 : 1 h 25 min
  428. Bit rate                                 : 89 b/s
  429. Frame rate                               : 0.256 FPS
  430. Count of elements                        : 1318
  431. Stream size                              : 56.3 KiB (0%)
  432. Language                                 : Swedish
  433. Default                                  : No
  434. Forced                                   : No
  435. Text #30
  436. ID                                       : 32
  437. Format                                   : UTF-8
  438. Codec ID                                 : S_TEXT/UTF8
  439. Codec ID/Info                            : UTF-8 Plain Text
  440. Duration                                 : 1 h 25 min
  441. Bit rate                                 : 265 b/s
  442. Frame rate                               : 0.301 FPS
  443. Count of elements                        : 1550
  444. Stream size                              : 167 KiB (0%)
  445. Language                                 : Thai
  446. Default                                  : No
  447. Forced                                   : No
  448. Text #31
  449. ID                                       : 33
  450. Format                                   : UTF-8
  451. Codec ID                                 : S_TEXT/UTF8
  452. Codec ID/Info                            : UTF-8 Plain Text
  453. Duration                                 : 1 h 25 min
  454. Bit rate                                 : 103 b/s
  455. Frame rate                               : 0.266 FPS
  456. Count of elements                        : 1369
  457. Stream size                              : 65.3 KiB (0%)
  458. Language                                 : Turkish
  459. Default                                  : No
  460. Forced                                   : No
  461. Text #32
  462. ID                                       : 34
  463. Format                                   : UTF-8
  464. Codec ID                                 : S_TEXT/UTF8
  465. Codec ID/Info                            : UTF-8 Plain Text
  466. Duration                                 : 1 h 25 min
  467. Bit rate                                 : 162 b/s
  468. Frame rate                               : 0.294 FPS
  469. Count of elements                        : 1512
  470. Stream size                              : 102 KiB (0%)
  471. Language                                 : Ukrainian
  472. Default                                  : No
  473. Forced                                   : No
  474. Text #33
  475. ID                                       : 35
  476. Format                                   : UTF-8
  477. Codec ID                                 : S_TEXT/UTF8
  478. Codec ID/Info                            : UTF-8 Plain Text
  479. Duration                                 : 1 h 25 min
  480. Bit rate                                 : 145 b/s
  481. Frame rate                               : 0.261 FPS
  482. Count of elements                        : 1345
  483. Stream size                              : 91.6 KiB (0%)
  484. Language                                 : Vietnamese
  485. Default                                  : No
  486. Forced                                   : No
  487. Text #34
  488. ID                                       : 36
  489. Format                                   : UTF-8
  490. Codec ID                                 : S_TEXT/UTF8
  491. Codec ID/Info                            : UTF-8 Plain Text
  492. Duration                                 : 1 h 25 min
  493. Bit rate                                 : 104 b/s
  494. Frame rate                               : 0.302 FPS
  495. Count of elements                        : 1554
  496. Stream size                              : 65.7 KiB (0%)
  497. Title                                    : Simplified
  498. Language                                 : Chinese (Simplied)
  499. Default                                  : No
  500. Forced                                   : No
  501. Text #35
  502. ID                                       : 37
  503. Format                                   : UTF-8
  504. Codec ID                                 : S_TEXT/UTF8
  505. Codec ID/Info                            : UTF-8 Plain Text
  506. Duration                                 : 1 h 25 min
  507. Bit rate                                 : 96 b/s
  508. Frame rate                               : 0.303 FPS
  509. Count of elements                        : 1560
  510. Stream size                              : 60.4 KiB (0%)
  511. Title                                    : Traditional
  512. Language                                 : Chinese (Traditional)
  513. Default                                  : No
  514. Forced                                   : No
  515. Menu
  516. 01:25:21.000                             : en:End Credits
复制代码











回复

使用道具 举报

懒得打字嘛,点击右侧快捷回复 【右侧内容,后台自定义】
您需要登录后才可以回帖 登录 | 立即加入

本版积分规则

Archiver|小黑屋| 蓝光电影网 |网站地图

Copyright © 2021 Comsenz Inc. Powered by 蓝光电影网

蓝光电影网

本站内容由用户自主分享和转载自互联网,转载目的在于传递更多信息,并不代表本网赞同其观点和对其真实性负责。

如有侵权、违反国家法律政策行为,请联系我们,我们会第一时间及时清除和处理!

举报反馈邮箱:[email protected]

快速回复 返回顶部 返回列表