找回密码

蓝光电影网

查看: 37|回复: 1

[喜剧] La Dégustation.The.Tasting.2022.720p.BluRay.x264-JustWatch 2.54GB

[复制链接]
蓝光币
1084
发表于 2023-1-11 22:14:08 | 显示全部楼层 |阅读模式


◎标  题 La Dégustation
◎译  名 The Tasting
◎年  代 2022
◎产  地 法国
◎类  别 笑剧 / 恋爱
◎语  言 法语
◎上映日期 2022-08-31(法国)
◎IMDb评分 6/10 (201人评价)
◎IMDb链接 https://www.imdb.com/title/tt14504294/
◎豆瓣链接 https://movie.douban.com/subject/35655203/
◎导  演 Ivan Calbérac Ivan Calbérac
◎编  剧 Ivan Calbérac Ivan Calbérac
◎演  员 伊莎贝尔·卡雷 Isabelle Carré
       贝尔纳·康庞 Bernard Campan
       艾瑞克维耶拉尔 Eric Viellard
       奥利维耶·克拉弗里 Olivier Claverie
       杰纳维夫·马尼奇 Geneviève Mnich
  1. Video
  2. ID                                       : 1
  3. Format                                   : AVC
  4. Format/Info                              : Advanced Video Codec
  5. Format profile                           : [email protected]
  6. Format settings                          : CABAC / 8 Ref Frames
  7. Format settings, CABAC                   : Yes
  8. Format settings, Reference frames        : 8 frames
  9. Codec ID                                 : V_MPEG4/ISO/AVC
  10. Duration                                 : 1 h 31 min
  11. Bit rate                                 : 3 284 kb/s
  12. Width                                    : 1 280 pixels
  13. Height                                   : 536 pixels
  14. Display aspect ratio                     : 2.40:1
  15. Frame rate mode                          : Constant
  16. Frame rate                               : 24.000 FPS
  17. Color space                              : YUV
  18. Chroma subsampling                       : 4:2:0
  19. Bit depth                                : 8 bits
  20. Scan type                                : Progressive
  21. Bits/(Pixel*Frame)                       : 0.199
  22. Stream size                              : 2.11 GiB (83%)
  23. Writing library                          : x264 core 164 r3103 941cae6
  24. Encoding settings                        : cabac=1 / ref=8 / deblock=1:-3:-3 / analyse=0x3:0x133 / me=umh / subme=9 / psy=1 / psy_rd=1.00:0.00 / mixed_ref=1 / me_range=32 / chroma_me=1 / trellis=2 / 8x8dct=1 / cqm=0 / deadzone=21,11 / fast_pskip=0 / chroma_qp_offset=-2 / threads=17 / lookahead_threads=1 / sliced_threads=0 / nr=0 / decimate=0 / interlaced=0 / bluray_compat=0 / constrained_intra=0 / bframes=3 / b_pyramid=2 / b_adapt=2 / b_bias=0 / direct=3 / weightb=1 / open_gop=0 / weightp=2 / keyint=250 / keyint_min=24 / scenecut=40 / intra_refresh=0 / rc=crf / mbtree=0 / crf=18.0 / qcomp=0.60 / qpmin=0 / qpmax=69 / qpstep=4 / ip_ratio=1.40 / pb_ratio=1.30 / aq=3:1.00
  25. Language                                 : English
  26. Default                                  : Yes
  27. Forced                                   : No
  28. Color range                              : Limited
  29. Matrix coefficients                      : BT.709
  30. Audio
  31. ID                                       : 2
  32. Format                                   : AC-3
  33. Format/Info                              : Audio Coding 3
  34. Commercial name                          : Dolby Digital
  35. Codec ID                                 : A_AC3
  36. Duration                                 : 1 h 31 min
  37. Bit rate mode                            : Constant
  38. Bit rate                                 : 640 kb/s
  39. Channel(s)                               : 6 channels
  40. Channel layout                           : L R C LFE Ls Rs
  41. Sampling rate                            : 48.0 kHz
  42. Frame rate                               : 31.250 FPS (1536 SPF)
  43. Compression mode                         : Lossy
  44. Stream size                              : 421 MiB (16%)
  45. Title                                    : French AC3 5.1
  46. Language                                 : French
  47. Service kind                             : Complete Main
  48. Default                                  : Yes
  49. Forced                                   : No
  50. Text #1
  51. ID                                       : 3
  52. Format                                   : UTF-8
  53. Codec ID                                 : S_TEXT/UTF8
  54. Codec ID/Info                            : UTF-8 Plain Text
  55. Duration                                 : 1 h 30 min
  56. Bit rate                                 : 49 b/s
  57. Count of elements                        : 1302
  58. Stream size                              : 32.6 KiB (0%)
  59. Language                                 : English
  60. Default                                  : Yes
  61. Forced                                   : Yes
  62. Text #2
  63. ID                                       : 4
  64. Format                                   : PGS
  65. Muxing mode                              : zlib
  66. Codec ID                                 : S_HDMV/PGS
  67. Codec ID/Info                            : Picture based subtitle format used on BDs/HD-DVDs
  68. Duration                                 : 1 h 30 min
  69. Bit rate                                 : 32.0 kb/s
  70. Count of elements                        : 2604
  71. Stream size                              : 20.7 MiB (1%)
  72. Language                                 : English
  73. Default                                  : No
  74. Forced                                   : No
  75. Text #3
  76. ID                                       : 5
  77. Format                                   : PGS
  78. Muxing mode                              : zlib
  79. Codec ID                                 : S_HDMV/PGS
  80. Codec ID/Info                            : Picture based subtitle format used on BDs/HD-DVDs
  81. Duration                                 : 1 h 31 min
  82. Bit rate                                 : 48.3 kb/s
  83. Count of elements                        : 3457
  84. Stream size                              : 31.6 MiB (1%)
  85. Language                                 : French
  86. Default                                  : No
  87. Forced                                   : No
  88. Menu
  89. 00:00:00.000                             : en:Chapter 01
  90. 00:09:57.500                             : en:Chapter 02
  91. 00:15:52.000                             : en:Chapter 03
  92. 00:24:35.292                             : en:Chapter 04
  93. 00:36:23.542                             : en:Chapter 05
  94. 00:42:12.500                             : en:Chapter 06
  95. 00:49:15.208                             : en:Chapter 07
  96. 00:55:20.500                             : en:Chapter 08
  97. 01:03:48.292                             : en:Chapter 09
  98. 01:11:46.708                             : en:Chapter 10
  99. 01:22:29.167                             : en:Chapter 11
  100. 01:28:03.417                             : en:Chapter 12
复制代码









回复

使用道具 举报

蓝光币
524
发表于 2023-1-12 14:24:50 | 显示全部楼层
不错不错!!!
回复

使用道具 举报

懒得打字嘛,点击右侧快捷回复 【右侧内容,后台自定义】
您需要登录后才可以回帖 登录 | 立即加入

本版积分规则

Archiver|小黑屋| 蓝光电影网 |网站地图

Copyright © 2021 Comsenz Inc. Powered by 蓝光电影网

蓝光电影网

本站内容由用户自主分享和转载自互联网,转载目的在于传递更多信息,并不代表本网赞同其观点和对其真实性负责。

如有侵权、违反国家法律政策行为,请联系我们,我们会第一时间及时清除和处理!

举报反馈邮箱:[email protected]

快速回复 返回顶部 返回列表