找回密码

蓝光电影网

查看: 66|回复: 3

[剧情] 大智若愚.Nobodys.Fool.1994.REMASTERED.1080p.BluRay.REMUX.AVC.DTS-HD.MA.5.1-FGT 31.14GB

[复制链接]
蓝光币
1080
发表于 2023-1-11 22:16:19 | 显示全部楼层 |阅读模式


◎标  题 深藏若虚
◎片  名 Nobody's Fool
◎年  代 1994
◎产  地 美国
◎类  别 剧情
◎语  言 英语
◎上映日期 1994-12-23(美国)
◎IMDb评分 7.3/10 (21166人评价)
◎IMDb链接 https://www.imdb.com/title/tt0110684/
◎豆瓣评分 8.0/10 (1362人评价)
◎豆瓣链接 https://movie.douban.com/subject/1297601/
◎片  长 110 分钟
◎导  演 罗伯特·本顿 Robert Benton
◎编  剧 理查德·拉索 Richard Russo
       罗伯特·本顿 Robert Benton
◎演  员 保罗·纽曼 Paul Newman
       杰西卡·坦迪 Jessica Tandy
       布鲁斯·威利斯 Bruce Willis
       梅兰尼·格里菲斯 Melanie Griffith
       迪伦·沃尔什 Dylan Walsh
       普路特·泰勒·文斯 Pruitt Taylor Vince
       吉恩·萨克斯 Gene Saks
       约瑟夫·索默 Josef Sommer
       菲利普·塞默·霍夫曼 Philip Seymour Hoffman
       菲利普·博斯科 Philip Bosco
       凯瑟琳·丹特 Catherine Dent
       Alexander Goodwin Alexander Goodwin
       卡尔·马图斯维奇 Carl J. Matusovich
       杰·帕特森 Jay Patterson
       杰瑞·梅尔 Jerry Mayer
       爱丽丝·德拉蒙德 Alice Drummond
       玛格·马丁戴尔 Margo Martindale
       安吉丽卡·托恩 Angelica Torn
       Shannah Laumeister Shannah Laumeister
       Page Johnson Page Johnson
       Anibal O. Lleras Anibal O. Lleras
       伊莉莎白·威尔森 Elizabeth Wilson
       迈克尔·豪斯曼 Michael Hausman
       Scott Ferguson Scott Ferguson
       阿琳·多诺万 Arlene Donovan
       霍华德·肖 Howard Shore
       约翰·布卢姆 John Bloom
       Ellen Chenoweth Ellen Chenoweth
       Dan Davis Dan Davis
       Joseph G. Aulisi Joseph G. Aulisi
       金·桑坦托尼奥 Kim Santantonio
       Dale Bach-Siss Dale Bach-Siss
       内奥米·多恩 Naomi Donne
       艾兰·丹格里奥 Alan D'Angerio
       Chitra F. Mojtabai Chitra F. Mojtabai
◎简  介
  演员声势壮盛的文艺小品,包括:保罗.纽曼、布鲁斯.威利斯、梅拉尼.格里菲思、洁西卡.坦迪等。导演是导过《克拉玛对克拉玛》的罗伯特.本顿。剧情以一位本性倔强的老修建工为中心,描写他与方圆的镇民在纽约北部的朴实小镇中过着虽不富足却悠然自得的生活。全片没有太大的戏剧飞腾,但对小镇风情的经营相当做功,保罗.纽曼表演跟他现实年龄相当的老角仍具神出鬼没风彩,获柏林电影节最好男配角奖。
  1. Video
  2. ID                                       : 1
  3. ID in the original source medium         : 4113 (0x1011)
  4. Format                                   : AVC
  5. Format/Info                              : Advanced Video Codec
  6. Format profile                           : [email protected]
  7. Format settings                          : CABAC / 4 Ref Frames
  8. Format settings, CABAC                   : Yes
  9. Format settings, Reference frames        : 4 frames
  10. Codec ID                                 : V_MPEG4/ISO/AVC
  11. Duration                                 : 1 h 50 min
  12. Bit rate mode                            : Variable
  13. Bit rate                                 : 36.3 Mb/s
  14. Maximum bit rate                         : 39.0 Mb/s
  15. Width                                    : 1 920 pixels
  16. Height                                   : 1 080 pixels
  17. Display aspect ratio                     : 16:9
  18. Frame rate mode                          : Constant
  19. Frame rate                               : 23.976 (24000/1001) FPS
  20. Color space                              : YUV
  21. Chroma subsampling                       : 4:2:0
  22. Bit depth                                : 8 bits
  23. Scan type                                : Progressive
  24. Bits/(Pixel*Frame)                       : 0.729
  25. Stream size                              : 27.9 GiB (90%)
  26. Language                                 : English
  27. Default                                  : No
  28. Forced                                   : No
  29. Original source medium                   : Blu-ray
  30. Audio #1
  31. ID                                       : 2
  32. ID in the original source medium         : 4352 (0x1100)
  33. Format                                   : DTS XLL
  34. Format/Info                              : Digital Theater Systems
  35. Commercial name                          : DTS-HD Master Audio
  36. Codec ID                                 : A_DTS
  37. Duration                                 : 1 h 50 min
  38. Bit rate mode                            : Variable
  39. Bit rate                                 : 2 391 kb/s
  40. Channel(s)                               : 6 channels
  41. Channel layout                           : C L R Ls Rs LFE
  42. Sampling rate                            : 48.0 kHz
  43. Frame rate                               : 93.750 FPS (512 SPF)
  44. Bit depth                                : 24 bits
  45. Compression mode                         : Lossless
  46. Stream size                              : 1.84 GiB (6%)
  47. Title                                    : DTS-HD MA 5.1
  48. Language                                 : English
  49. Default                                  : Yes
  50. Forced                                   : No
  51. Original source medium                   : Blu-ray
  52. Audio #2
  53. ID                                       : 3
  54. ID in the original source medium         : 4353 (0x1101)
  55. Format                                   : DTS XLL
  56. Format/Info                              : Digital Theater Systems
  57. Commercial name                          : DTS-HD Master Audio
  58. Codec ID                                 : A_DTS
  59. Duration                                 : 1 h 50 min
  60. Bit rate mode                            : Variable
  61. Bit rate                                 : 1 598 kb/s
  62. Channel(s)                               : 2 channels
  63. Channel layout                           : L R
  64. Sampling rate                            : 48.0 kHz
  65. Frame rate                               : 93.750 FPS (512 SPF)
  66. Bit depth                                : 24 bits
  67. Compression mode                         : Lossless
  68. Stream size                              : 1.23 GiB (4%)
  69. Title                                    : DTS-HD MA 2.0
  70. Language                                 : English
  71. Default                                  : No
  72. Forced                                   : No
  73. Original source medium                   : Blu-ray
  74. Audio #3
  75. ID                                       : 4
  76. ID in the original source medium         : 4354 (0x1102)
  77. Format                                   : AC-3
  78. Format/Info                              : Audio Coding 3
  79. Commercial name                          : Dolby Digital
  80. Codec ID                                 : A_AC3
  81. Duration                                 : 1 h 50 min
  82. Bit rate mode                            : Constant
  83. Bit rate                                 : 192 kb/s
  84. Channel(s)                               : 2 channels
  85. Channel layout                           : L R
  86. Sampling rate                            : 48.0 kHz
  87. Frame rate                               : 31.250 FPS (1536 SPF)
  88. Compression mode                         : Lossy
  89. Stream size                              : 151 MiB (0%)
  90. Title                                    : DD 2.0
  91. Language                                 : English
  92. Service kind                             : Complete Main
  93. Default                                  : No
  94. Forced                                   : No
  95. Original source medium                   : Blu-ray
  96. Text #1
  97. ID                                       : 5
  98. Format                                   : UTF-8
  99. Codec ID                                 : S_TEXT/UTF8
  100. Codec ID/Info                            : UTF-8 Plain Text
  101. Duration                                 : 1 h 43 min
  102. Bit rate                                 : 65 b/s
  103. Frame rate                               : 0.281 FPS
  104. Count of elements                        : 1748
  105. Stream size                              : 49.5 KiB (0%)
  106. Language                                 : English
  107. Default                                  : Yes
  108. Forced                                   : No
  109. Text #2
  110. ID                                       : 6
  111. Format                                   : UTF-8
  112. Codec ID                                 : S_TEXT/UTF8
  113. Codec ID/Info                            : UTF-8 Plain Text
  114. Duration                                 : 1 h 46 min
  115. Bit rate                                 : 70 b/s
  116. Frame rate                               : 0.301 FPS
  117. Count of elements                        : 1920
  118. Stream size                              : 54.8 KiB (0%)
  119. Title                                    : SDH
  120. Language                                 : English
  121. Default                                  : No
  122. Forced                                   : No
  123. Text #3
  124. ID                                       : 7
  125. ID in the original source medium         : 4608 (0x1200)
  126. Format                                   : PGS
  127. Muxing mode                              : zlib
  128. Codec ID                                 : S_HDMV/PGS
  129. Codec ID/Info                            : Picture based subtitle format used on BDs/HD-DVDs
  130. Duration                                 : 1 h 46 min
  131. Bit rate                                 : 44.1 kb/s
  132. Frame rate                               : 0.427 FPS
  133. Count of elements                        : 2721
  134. Stream size                              : 33.6 MiB (0%)
  135. Language                                 : English
  136. Default                                  : No
  137. Forced                                   : No
  138. Original source medium                   : Blu-ray
  139. Menu
  140. 00:00:00.000                             : en:Chapter 00
  141. 00:08:42.230                             : en:Chapter 01
  142. 00:22:40.609                             : en:Chapter 02
  143. 00:40:17.039                             : en:Chapter 03
  144. 01:01:52.375                             : en:Chapter 04
  145. 01:18:23.365                             : en:Chapter 05
  146. 01:34:21.989                             : en:Chapter 06
  147. 01:46:26.338                             : en:Chapter 07
复制代码











回复

使用道具 举报

蓝光币
333
发表于 2023-1-12 23:37:58 | 显示全部楼层

楼主,我太崇拜你了!我想我是一天也不能离开蓝光电影网。
回复 支持 反对

使用道具 举报

蓝光币
14
发表于 2023-1-15 09:08:37 | 显示全部楼层
楼主发贴辛苦了,谢谢楼主分享!我觉得蓝光电影网是注册对了!
回复 支持 反对

使用道具 举报

蓝光币
382
发表于 2023-1-15 10:19:23 | 显示全部楼层

楼主太厉害了!楼主,电影应该很好看我觉得蓝光电影网真是个好地方!
回复 支持 反对

使用道具 举报

懒得打字嘛,点击右侧快捷回复 【右侧内容,后台自定义】
您需要登录后才可以回帖 登录 | 立即加入

本版积分规则

Archiver|小黑屋| 蓝光电影网 |网站地图

Copyright © 2021 Comsenz Inc. Powered by 蓝光电影网

蓝光电影网

本站内容由用户自主分享和转载自互联网,转载目的在于传递更多信息,并不代表本网赞同其观点和对其真实性负责。

如有侵权、违反国家法律政策行为,请联系我们,我们会第一时间及时清除和处理!

举报反馈邮箱:[email protected]

快速回复 返回顶部 返回列表