找回密码

蓝光电影网

查看: 73|回复: 1

[动作] 狩猎岛游戏.The.Most.Dangerous.Game.2022.1080p.BluRay.x264.DTS-HD.MA.2.0-FGT 9.00GB

[复制链接]
蓝光币
1082
发表于 2023-1-11 22:20:45 | 显示全部楼层 |阅读模式


◎标  题 狩猎岛游戏
◎片  名 The Most Dangerous Game
◎年  代 2022
◎产  地 美国
◎类  别 行动 / 惊悚
◎语  言 英语
◎上映日期 2022-08-05(美国)
◎IMDb评分 3.4/10 (307人评价)
◎IMDb链接 https://www.imdb.com/title/tt15822738/
◎豆瓣链接 https://movie.douban.com/subject/35718305/
◎片  长 95分钟
◎演  员 卡斯帕·范·迪恩 Casper Van Dien
       布鲁斯·邓恩 Bruce Dern
       汤姆·贝伦杰 Tom Berenger
       贾德·尼尔森 Judd Nelson
       Kevin Porter Kevin Porter
       Chris Tamburello Chris Tamburello
       艾丽莎·道林 Elissa Dowling
       爱德华多·芬莱 Edward Finlay
       兰迪·查奇 Randy Charach
◎简  介
    汽船爆炸后,一对父子被冲登陆。这些人在一个奥秘的岛上找到了出亡所,在那边,他们邪恶的仆人向他们流露,这个岛是他的狩猎庇护区,在那边人类充任了终极的捕猎者
  1. Video
  2. ID                                       : 1
  3. Format                                   : AVC
  4. Format/Info                              : Advanced Video Codec
  5. Format profile                           : [email protected]
  6. Format settings                          : CABAC / 4 Ref Frames
  7. Format settings, CABAC                   : Yes
  8. Format settings, Reference frames        : 4 frames
  9. Codec ID                                 : V_MPEG4/ISO/AVC
  10. Duration                                 : 1 h 34 min
  11. Bit rate                                 : 11.5 Mb/s
  12. Width                                    : 1 920 pixels
  13. Height                                   : 816 pixels
  14. Display aspect ratio                     : 2.35:1
  15. Frame rate mode                          : Constant
  16. Frame rate                               : 23.976 (24000/1001) FPS
  17. Color space                              : YUV
  18. Chroma subsampling                       : 4:2:0
  19. Bit depth                                : 8 bits
  20. Scan type                                : Progressive
  21. Bits/(Pixel*Frame)                       : 0.306
  22. Stream size                              : 7.59 GiB (84%)
  23. Writing library                          : x264 core 148 r2795M aaa9aa8
  24. Encoding settings                        : cabac=1 / ref=4 / deblock=1:-2:-2 / analyse=0x3:0x113 / me=umh / subme=9 / psy=1 / psy_rd=1.00:0.15 / mixed_ref=1 / me_range=16 / chroma_me=1 / trellis=2 / 8x8dct=1 / cqm=0 / deadzone=21,11 / fast_pskip=1 / chroma_qp_offset=-3 / threads=72 / lookahead_threads=3 / sliced_threads=0 / nr=0 / decimate=1 / interlaced=0 / bluray_compat=0 / constrained_intra=0 / bframes=3 / b_pyramid=2 / b_adapt=1 / b_bias=0 / direct=3 / weightb=1 / open_gop=0 / weightp=2 / keyint=250 / keyint_min=25 / scenecut=40 / intra_refresh=0 / rc_lookahead=50 / rc=2pass / mbtree=1 / bitrate=11500 / ratetol=1.0 / qcomp=0.60 / qpmin=0 / qpmax=69 / qpstep=4 / cplxblur=20.0 / qblur=0.5 / vbv_maxrate=31250 / vbv_bufsize=31250 / nal_hrd=none / filler=0 / ip_ratio=1.40 / aq=1:1.00
  25. Language                                 : English
  26. Default                                  : Yes
  27. Forced                                   : No
  28. Audio
  29. ID                                       : 2
  30. ID in the original source medium         : 4352 (0x1100)
  31. Format                                   : DTS XLL
  32. Format/Info                              : Digital Theater Systems
  33. Commercial name                          : DTS-HD Master Audio
  34. Codec ID                                 : A_DTS
  35. Duration                                 : 1 h 34 min
  36. Bit rate mode                            : Variable
  37. Bit rate                                 : 2 125 kb/s
  38. Channel(s)                               : 2 channels
  39. Channel layout                           : L R
  40. Sampling rate                            : 48.0 kHz
  41. Frame rate                               : 93.750 FPS (512 SPF)
  42. Bit depth                                : 24 bits
  43. Compression mode                         : Lossless
  44. Stream size                              : 1.40 GiB (16%)
  45. Title                                    : DTS-HD MA 2.0
  46. Language                                 : English
  47. Default                                  : Yes
  48. Forced                                   : No
  49. Original source medium                   : Blu-ray
  50. Text #1
  51. ID                                       : 3
  52. Format                                   : UTF-8
  53. Codec ID                                 : S_TEXT/UTF8
  54. Codec ID/Info                            : UTF-8 Plain Text
  55. Duration                                 : 1 h 30 min
  56. Bit rate                                 : 51 b/s
  57. Frame rate                               : 0.212 FPS
  58. Count of elements                        : 1145
  59. Stream size                              : 33.9 KiB (0%)
  60. Language                                 : English
  61. Default                                  : Yes
  62. Forced                                   : No
  63. Text #2
  64. ID                                       : 4
  65. Format                                   : UTF-8
  66. Codec ID                                 : S_TEXT/UTF8
  67. Codec ID/Info                            : UTF-8 Plain Text
  68. Duration                                 : 1 h 33 min
  69. Bit rate                                 : 52 b/s
  70. Frame rate                               : 0.223 FPS
  71. Count of elements                        : 1242
  72. Stream size                              : 35.6 KiB (0%)
  73. Title                                    : SDH
  74. Language                                 : English
  75. Default                                  : No
  76. Forced                                   : No
  77. Text #3
  78. ID                                       : 5
  79. ID in the original source medium         : 4608 (0x1200)
  80. Format                                   : PGS
  81. Muxing mode                              : zlib
  82. Codec ID                                 : S_HDMV/PGS
  83. Codec ID/Info                            : Picture based subtitle format used on BDs/HD-DVDs
  84. Duration                                 : 1 h 33 min
  85. Bit rate                                 : 21.1 kb/s
  86. Frame rate                               : 0.471 FPS
  87. Count of elements                        : 2631
  88. Stream size                              : 14.0 MiB (0%)
  89. Language                                 : English
  90. Default                                  : No
  91. Forced                                   : No
  92. Original source medium                   : Blu-ray
  93. Menu
  94. 00:00:00.000                             : en:Chapter 01
  95. 00:01:15.742                             : en:Chapter 02
  96. 00:09:46.294                             : en:Chapter 03
  97. 00:17:59.244                             : en:Chapter 04
  98. 00:35:11.734                             : en:Chapter 05
  99. 00:43:51.253                             : en:Chapter 06
  100. 00:56:58.123                             : en:Chapter 07
  101. 01:12:39.980                             : en:Chapter 08
  102. 01:33:02.493                             : en:Chapter 09
复制代码











回复

使用道具 举报

蓝光币
785
发表于 2023-1-11 23:44:28 | 显示全部楼层
楼主发贴辛苦了,谢谢楼主分享!我觉得蓝光电影网是注册对了!
回复 支持 反对

使用道具 举报

懒得打字嘛,点击右侧快捷回复 【右侧内容,后台自定义】
您需要登录后才可以回帖 登录 | 立即加入

本版积分规则

Archiver|小黑屋| 蓝光电影网 |网站地图

Copyright © 2021 Comsenz Inc. Powered by 蓝光电影网

蓝光电影网

本站内容由用户自主分享和转载自互联网,转载目的在于传递更多信息,并不代表本网赞同其观点和对其真实性负责。

如有侵权、违反国家法律政策行为,请联系我们,我们会第一时间及时清除和处理!

举报反馈邮箱:[email protected]

快速回复 返回顶部 返回列表