找回密码

蓝光电影网

查看: 76|回复: 0

[剧情] 地狱花园.Hells.Garden.2021.JAPANESE.1080p.BluRay.x264.DTS-iKiW 12.01GB

[复制链接]
蓝光币
1082
发表于 2023-1-11 22:20:48 | 显示全部楼层 |阅读模式


◎标  题 天堂花园
◎译  名 天堂的花园 / Hell's Garden
◎片  名 地獄の花園
◎年  代 2021
◎产  地 日本
◎类  别 剧情
◎语  言 日语
◎上映日期 2021-05-21(日本)
◎IMDb评分 6.4/10 (147人评价)
◎IMDb链接 https://www.imdb.com/title/tt14605182/
◎豆瓣评分 6.4/10 (1711人评价)
◎豆瓣链接 https://movie.douban.com/subject/35311753/
◎片  长 102分钟
◎导  演 関和亮 Kazuaki Seki
◎编  剧 笨蛋节奏 Bakarhythm
◎演  员 永野芽郁 Mei Nagano
       广濑爱丽丝 Alice Hirose
       菜菜绪 Nanao
       川荣李奈 Rina Kawaei
       大岛美幸 Miyuki Ohshima
       松尾谕 Satoru Matsuo
       丸山智己 Tomomi Maruyama
       胜村政信 Masanobu Katsumura
       远藤宪一 Ken'ichi Endô
       小池荣子 Eiko Koike
◎简  介
  26岁仆人公·田中直子(永野芽郁 饰)原本过着普通的白领生活,但公司聘用一位魅力无边的不良女白领兰(广濑爱丽丝 饰),中途入职的她和直子发生友谊,二人会一路去咖啡店,但实在她是以「丝卡将」(微风图案茄克)为标志的人气不良OL。直子被卷入天堂般的派系斗争,能否重获平稳的OL生活?
  1. Video
  2. ID                                       : 1
  3. Format                                   : AVC
  4. Format/Info                              : Advanced Video Codec
  5. Format profile                           : [email protected]
  6. Format settings                          : CABAC / 4 Ref Frames
  7. Format settings, CABAC                   : Yes
  8. Format settings, Reference frames        : 4 frames
  9. Codec ID                                 : V_MPEG4/ISO/AVC
  10. Duration                                 : 1 h 42 min
  11. Bit rate                                 : 16.0 Mb/s
  12. Width                                    : 1 920 pixels
  13. Height                                   : 1 038 pixels
  14. Display aspect ratio                     : 1.85:1
  15. Frame rate mode                          : Constant
  16. Frame rate                               : 23.976 (24000/1001) FPS
  17. Color space                              : YUV
  18. Chroma subsampling                       : 4:2:0
  19. Bit depth                                : 8 bits
  20. Scan type                                : Progressive
  21. Bits/(Pixel*Frame)                       : 0.336
  22. Stream size                              : 11.5 GiB (95%)
  23. Title                                    : Jubowo @ WiKi
  24. Writing library                          : x264 core 129 r2245+704+36 8e61944 tMod+MixAQ [[email protected]:2:0 X86_64]
  25. Encoding settings                        : cabac=1 / ref=4 / deblock=1:-3:-3 / analyse=0x3:0x133 / me=umh / subme=11 / psy=1 / fade_compensate=0.00 / psy_rd=1.05:0.10 / mixed_ref=1 / me_range=64 / chroma_me=1 / trellis=2 / 8x8dct=1 / cqm=0 / deadzone=21,11 / fast_pskip=0 / chroma_qp_offset=-3 / threads=18 / lookahead_threads=3 / sliced_threads=0 / nr=0 / decimate=0 / interlaced=0 / bluray_compat=0 / constrained_intra=0 / fgo=0 / bframes=12 / b_pyramid=2 / b_adapt=2 / b_bias=0 / direct=3 / weightb=1 / open_gop=0 / weightp=2 / keyint=250 / keyint_min=23 / scenecut=40 / intra_refresh=0 / rc=2pass / mbtree=0 / bitrate=16050 / ratetol=1.0 / qcomp=0.70 / qpmin=0 / qpmax=69 / qpstep=4 / cplxblur=20.0 / qblur=0.5 / ip_ratio=1.20 / pb_ratio=1.10 / aq=1 / aq-strength=0.85 / aq-sensitivity=10.00 / aq-ifactor=1.00 / aq-pfactor=1.00 / aq-bfactor=1.00 / aq2=0
  26. Language                                 : Japanese
  27. Default                                  : Yes
  28. Forced                                   : No
  29. Audio
  30. ID                                       : 2
  31. Format                                   : DTS
  32. Format/Info                              : Digital Theater Systems
  33. Codec ID                                 : A_DTS
  34. Duration                                 : 1 h 42 min
  35. Bit rate mode                            : Constant
  36. Bit rate                                 : 768 kb/s
  37. Channel(s)                               : 6 channels
  38. Channel layout                           : C L R Ls Rs LFE
  39. Sampling rate                            : 48.0 kHz
  40. Frame rate                               : 93.750 FPS (512 SPF)
  41. Bit depth                                : 24 bits
  42. Compression mode                         : Lossy
  43. Stream size                              : 561 MiB (5%)
  44. Language                                 : Japanese
  45. Default                                  : Yes
  46. Forced                                   : No
  47. Text
  48. ID                                       : 3
  49. Format                                   : UTF-8
  50. Codec ID                                 : S_TEXT/UTF8
  51. Codec ID/Info                            : UTF-8 Plain Text
  52. Duration                                 : 1 h 41 min
  53. Bit rate                                 : 40 b/s
  54. Frame rate                               : 0.185 FPS
  55. Count of elements                        : 1123
  56. Stream size                              : 29.7 KiB (0%)
  57. Language                                 : English
  58. Default                                  : No
  59. Forced                                   : No
  60. Menu
  61. 00:00:00.000                             : en:Chapter 01
  62. 00:08:27.549                             : en:Chapter 02
  63. 00:16:14.932                             : en:Chapter 03
  64. 00:24:33.681                             : en:Chapter 04
  65. 00:29:49.287                             : en:Chapter 05
  66. 00:39:40.295                             : en:Chapter 06
  67. 00:45:49.372                             : en:Chapter 07
  68. 00:50:48.754                             : en:Chapter 08
  69. 00:56:06.113                             : en:Chapter 09
  70. 01:01:30.353                             : en:Chapter 10
  71. 01:07:30.213                             : en:Chapter 11
  72. 01:13:43.377                             : en:Chapter 12
  73. 01:24:40.158                             : en:Chapter 13
  74. 01:33:56.840                             : en:Chapter 14
  75. 01:37:10.616                             : en:Chapter 15
复制代码











回复

使用道具 举报

懒得打字嘛,点击右侧快捷回复 【右侧内容,后台自定义】
您需要登录后才可以回帖 登录 | 立即加入

本版积分规则

Archiver|小黑屋| 蓝光电影网 |网站地图

Copyright © 2021 Comsenz Inc. Powered by 蓝光电影网

蓝光电影网

本站内容由用户自主分享和转载自互联网,转载目的在于传递更多信息,并不代表本网赞同其观点和对其真实性负责。

如有侵权、违反国家法律政策行为,请联系我们,我们会第一时间及时清除和处理!

举报反馈邮箱:[email protected]

快速回复 返回顶部 返回列表