找回密码

蓝光电影网

查看: 90|回复: 0

[剧情] 噪音.Noise.2022.JAPANESE.1080p.BluRay.x264.DTS-iKiW 9.75GB

[复制链接]
蓝光币
1084
发表于 2023-1-11 22:20:52 | 显示全部楼层 |阅读模式


◎标  题 乐音
◎片  名 ノイズ noise
◎年  代 2022
◎产  地 日本
◎类  别 剧情 / 惊悚 / 犯罪
◎语  言 日语
◎上映日期 2022-01-28(日本)
◎IMDb评分 6.1/10 (97人评价)
◎IMDb链接 https://www.imdb.com/title/tt15215468/
◎豆瓣评分 6.1/10 (1514人评价)
◎豆瓣链接 https://movie.douban.com/subject/35248699/
◎片  长 128分钟
◎导  演 广木隆一 Ryuichi Hiroki
◎编  剧 片冈翔 Sho Kataoka
       筒井哲也 Tetsuya Tsutsui
◎演  员 藤原龙也 Tatsuya Fujiwara
       松山研一 Ken'ichi Matsuyama
       神木隆之介 Ryûnosuke Kamiki
       渡边大知 Daichi Watanabe
       黑木华 Haru Kuroki
       伊藤步 Ayumi Ito
       酒向芳 Yoshi Sakou
       菜叶菜 Nahana
       迫田孝也 Takaya Sakoda
       鹤田真由 Mayu Tsuruta
       波冈一喜 Kazuki Namioka
       寺岛进 Susumu Terajima
       余贵美子 Kimiko Yo
       柄本明 Akira Emoto
       永濑正敏 Masatoshi Nagase
       大石吾朗 Goro Oishi
       诹访太朗 Tarô Suwa
       饭岛莉央 Rio Iijima
◎简  介
    改编自筒井哲也的同名漫画。故事报告孤岛猪狩岛上生齿及资本稀少,岛上青年泉圭太(藤原龙也 饰)生产的黑色无花果成功吸引到了大量资金进驻,松山研一饰演与圭太自幼一路长大的猎人田边纯,两人的命运因一场谋杀案发生改变。
  1. Video
  2. ID                                       : 1
  3. Format                                   : AVC
  4. Format/Info                              : Advanced Video Codec
  5. Format profile                           : [email protected]
  6. Format settings                          : CABAC / 5 Ref Frames
  7. Format settings, CABAC                   : Yes
  8. Format settings, Reference frames        : 5 frames
  9. Codec ID                                 : V_MPEG4/ISO/AVC
  10. Duration                                 : 2 h 8 min
  11. Bit rate                                 : 9 364 kb/s
  12. Width                                    : 1 920 pixels
  13. Height                                   : 804 pixels
  14. Display aspect ratio                     : 2.40:1
  15. Frame rate mode                          : Constant
  16. Frame rate                               : 23.976 (24000/1001) FPS
  17. Color space                              : YUV
  18. Chroma subsampling                       : 4:2:0
  19. Bit depth                                : 8 bits
  20. Scan type                                : Progressive
  21. Bits/(Pixel*Frame)                       : 0.253
  22. Stream size                              : 8.38 GiB (86%)
  23. Title                                    : Jubowo @ WiKi
  24. Writing library                          : x264 core 164 r3094 bfc87b7
  25. Encoding settings                        : cabac=1 / ref=5 / deblock=1:-3:-3 / analyse=0x3:0x133 / me=umh / subme=11 / psy=1 / psy_rd=1.00:0.10 / mixed_ref=1 / me_range=32 / chroma_me=1 / trellis=2 / 8x8dct=1 / cqm=0 / deadzone=21,11 / fast_pskip=0 / chroma_qp_offset=-3 / threads=25 / lookahead_threads=6 / sliced_threads=0 / nr=0 / decimate=0 / interlaced=0 / bluray_compat=0 / constrained_intra=0 / bframes=12 / b_pyramid=2 / b_adapt=1 / b_bias=0 / direct=3 / weightb=1 / open_gop=0 / weightp=2 / keyint=250 / keyint_min=23 / scenecut=40 / intra_refresh=0 / rc=2pass / mbtree=0 / bitrate=9364 / ratetol=1.0 / qcomp=0.65 / qpmin=0 / qpmax=69 / qpstep=4 / cplxblur=20.0 / qblur=0.5 / ip_ratio=1.40 / pb_ratio=1.30 / aq=3:0.90
  26. Language                                 : Japanese
  27. Default                                  : Yes
  28. Forced                                   : No
  29. Audio
  30. ID                                       : 2
  31. Format                                   : DTS
  32. Format/Info                              : Digital Theater Systems
  33. Codec ID                                 : A_DTS
  34. Duration                                 : 2 h 8 min
  35. Bit rate mode                            : Constant
  36. Bit rate                                 : 1 509 kb/s
  37. Channel(s)                               : 6 channels
  38. Channel layout                           : C L R Ls Rs LFE
  39. Sampling rate                            : 48.0 kHz
  40. Frame rate                               : 93.750 FPS (512 SPF)
  41. Bit depth                                : 24 bits
  42. Compression mode                         : Lossy
  43. Stream size                              : 1.35 GiB (14%)
  44. Language                                 : Japanese
  45. Default                                  : Yes
  46. Forced                                   : No
  47. Text
  48. ID                                       : 3
  49. Format                                   : UTF-8
  50. Codec ID                                 : S_TEXT/UTF8
  51. Codec ID/Info                            : UTF-8 Plain Text
  52. Duration                                 : 2 h 7 min
  53. Bit rate                                 : 34 b/s
  54. Frame rate                               : 0.146 FPS
  55. Count of elements                        : 1118
  56. Stream size                              : 32.0 KiB (0%)
  57. Language                                 : English
  58. Default                                  : Yes
  59. Forced                                   : No
  60. Menu
  61. 00:00:00.000                             : en:Chapter 01
  62. 00:23:25.070                             : en:Chapter 02
  63. 00:35:50.357                             : en:Chapter 03
  64. 00:53:50.227                             : en:Chapter 04
  65. 01:14:19.664                             : en:Chapter 05
  66. 01:39:01.185                             : en:Chapter 06
  67. 01:48:05.437                             : en:Chapter 07
  68. 02:03:54.427                             : en:Chapter 08
复制代码











回复

使用道具 举报

懒得打字嘛,点击右侧快捷回复 【右侧内容,后台自定义】
您需要登录后才可以回帖 登录 | 立即加入

本版积分规则

Archiver|小黑屋| 蓝光电影网 |网站地图

Copyright © 2021 Comsenz Inc. Powered by 蓝光电影网

蓝光电影网

本站内容由用户自主分享和转载自互联网,转载目的在于传递更多信息,并不代表本网赞同其观点和对其真实性负责。

如有侵权、违反国家法律政策行为,请联系我们,我们会第一时间及时清除和处理!

举报反馈邮箱:[email protected]

快速回复 返回顶部 返回列表