找回密码

蓝光电影网

查看: 143|回复: 1

[恐怖] 牛首村.Ox-Head.Village.2022.JAPANESE.1080p.BluRay.x264.DD5.1-iKiW 7.95GB

[复制链接]
蓝光币
1084
发表于 2023-1-12 06:05:42 | 显示全部楼层 |阅读模式


◎标  题 牛首村
◎译  名 Ox-Head Village
◎年  代 2022
◎产  地 日本
◎类  别 可骇
◎语  言 日语
◎上映日期 2022-02-18(日本)
◎IMDb评分 4.7/10 (166人评价)
◎IMDb链接 https://www.imdb.com/title/tt15458866/
◎豆瓣链接 https://movie.douban.com/subject/35498087/
◎片  长 115分钟
◎简  介
    《咒怨》导演清水崇执导的“可骇村”系列电影第三弹《牛首村》公布海报,并公布由木村拓哉的女儿木村光希主演,这也是她的大银幕出道!                                                                      和系列前作《犬鸣村》《树海村》一样,《牛首村》灵感也源自实在存在的灵异场所,此次聚焦日本北陆地域的怪谈事务。
  1. Video
  2. ID                                       : 1
  3. Format                                   : AVC
  4. Format/Info                              : Advanced Video Codec
  5. Format profile                           : [email protected]
  6. Format settings                          : CABAC / 4 Ref Frames
  7. Format settings, CABAC                   : Yes
  8. Format settings, Reference frames        : 4 frames
  9. Codec ID                                 : V_MPEG4/ISO/AVC
  10. Duration                                 : 1 h 54 min
  11. Bit rate                                 : 9 246 kb/s
  12. Width                                    : 1 920 pixels
  13. Height                                   : 1 036 pixels
  14. Display aspect ratio                     : 1.85:1
  15. Frame rate mode                          : Constant
  16. Frame rate                               : 23.976 (24000/1001) FPS
  17. Color space                              : YUV
  18. Chroma subsampling                       : 4:2:0
  19. Bit depth                                : 8 bits
  20. Scan type                                : Progressive
  21. Bits/(Pixel*Frame)                       : 0.194
  22. Stream size                              : 7.42 GiB (93%)
  23. Title                                    : Jubowo @ WiKi
  24. Writing library                          : x264 core 164 r3094 bfc87b7
  25. Encoding settings                        : cabac=1 / ref=4 / deblock=1:-3:-3 / analyse=0x3:0x133 / me=umh / subme=11 / psy=1 / psy_rd=1.00:0.10 / mixed_ref=1 / me_range=32 / chroma_me=1 / trellis=2 / 8x8dct=1 / cqm=0 / deadzone=21,11 / fast_pskip=0 / chroma_qp_offset=-3 / threads=30 / lookahead_threads=7 / sliced_threads=0 / nr=0 / decimate=0 / interlaced=0 / bluray_compat=0 / constrained_intra=0 / bframes=12 / b_pyramid=2 / b_adapt=1 / b_bias=0 / direct=3 / weightb=1 / open_gop=0 / weightp=2 / keyint=250 / keyint_min=23 / scenecut=40 / intra_refresh=0 / rc=2pass / mbtree=0 / bitrate=9246 / ratetol=1.0 / qcomp=0.65 / qpmin=0 / qpmax=69 / qpstep=4 / cplxblur=20.0 / qblur=0.5 / ip_ratio=1.40 / pb_ratio=1.30 / aq=3:0.90
  26. Language                                 : Japanese
  27. Default                                  : Yes
  28. Forced                                   : No
  29. Audio
  30. ID                                       : 2
  31. Format                                   : AC-3
  32. Format/Info                              : Audio Coding 3
  33. Commercial name                          : Dolby Digital
  34. Codec ID                                 : A_AC3
  35. Duration                                 : 1 h 54 min
  36. Bit rate mode                            : Constant
  37. Bit rate                                 : 640 kb/s
  38. Channel(s)                               : 6 channels
  39. Channel layout                           : L R C LFE Ls Rs
  40. Sampling rate                            : 48.0 kHz
  41. Frame rate                               : 31.250 FPS (1536 SPF)
  42. Compression mode                         : Lossy
  43. Stream size                              : 526 MiB (6%)
  44. Language                                 : Japanese
  45. Service kind                             : Complete Main
  46. Default                                  : Yes
  47. Forced                                   : No
  48. Text
  49. ID                                       : 3
  50. Format                                   : UTF-8
  51. Codec ID                                 : S_TEXT/UTF8
  52. Codec ID/Info                            : UTF-8 Plain Text
  53. Duration                                 : 1 h 54 min
  54. Bit rate                                 : 23 b/s
  55. Frame rate                               : 0.126 FPS
  56. Count of elements                        : 863
  57. Stream size                              : 19.9 KiB (0%)
  58. Language                                 : English
  59. Default                                  : No
  60. Forced                                   : No
  61. Menu
  62. 00:00:00.000                             : en:Chapter 01
  63. 00:06:03.947                             : en:Chapter 02
  64. 00:07:48.301                             : en:Chapter 03
  65. 00:13:21.300                             : en:Chapter 04
  66. 00:15:54.954                             : en:Chapter 05
  67. 00:17:54.615                             : en:Chapter 06
  68. 00:20:00.282                             : en:Chapter 07
  69. 00:22:25.261                             : en:Chapter 08
  70. 00:26:10.527                             : en:Chapter 09
  71. 00:32:01.211                             : en:Chapter 10
  72. 00:33:15.160                             : en:Chapter 11
  73. 00:34:14.844                             : en:Chapter 12
  74. 00:37:55.857                             : en:Chapter 13
  75. 00:39:17.897                             : en:Chapter 14
  76. 00:41:46.963                             : en:Chapter 15
  77. 00:42:54.655                             : en:Chapter 16
  78. 00:44:12.066                             : en:Chapter 17
  79. 00:44:57.028                             : en:Chapter 18
  80. 00:46:06.722                             : en:Chapter 19
  81. 00:47:47.198                             : en:Chapter 20
  82. 00:48:43.003                             : en:Chapter 21
  83. 00:50:55.052                             : en:Chapter 22
  84. 00:53:46.932                             : en:Chapter 23
  85. 00:55:03.383                             : en:Chapter 24
  86. 00:57:10.886                             : en:Chapter 25
  87. 01:02:33.750                             : en:Chapter 26
  88. 01:06:52.175                             : en:Chapter 27
  89. 01:09:30.625                             : en:Chapter 28
  90. 01:14:15.117                             : en:Chapter 29
  91. 01:16:24.914                             : en:Chapter 30
  92. 01:17:59.675                             : en:Chapter 31
  93. 01:19:21.090                             : en:Chapter 32
  94. 01:20:56.602                             : en:Chapter 33
  95. 01:22:34.616                             : en:Chapter 34
  96. 01:24:22.933                             : en:Chapter 35
  97. 01:33:19.302                             : en:Chapter 36
  98. 01:36:09.055                             : en:Chapter 37
  99. 01:37:42.482                             : en:Chapter 38
  100. 01:41:05.977                             : en:Chapter 39
  101. 01:45:58.435                             : en:Chapter 40
  102. 01:49:38.572                             : en:Chapter 41
  103. 01:51:41.695                             : en:Chapter 42
复制代码











回复

使用道具 举报

蓝光币
46
发表于 2023-1-15 18:26:46 | 显示全部楼层
日本的经典恐怖电影
回复 支持 反对

使用道具 举报

懒得打字嘛,点击右侧快捷回复 【右侧内容,后台自定义】
您需要登录后才可以回帖 登录 | 立即加入

本版积分规则

Archiver|小黑屋| 蓝光电影网 |网站地图

Copyright © 2021 Comsenz Inc. Powered by 蓝光电影网

蓝光电影网

本站内容由用户自主分享和转载自互联网,转载目的在于传递更多信息,并不代表本网赞同其观点和对其真实性负责。

如有侵权、违反国家法律政策行为,请联系我们,我们会第一时间及时清除和处理!

举报反馈邮箱:[email protected]

快速回复 返回顶部 返回列表