找回密码

蓝光电影网

查看: 97|回复: 2

[剧情] 昨日的美食 电影版.What.Did.You.Eat.Yesterday.2021.JAPANESE.1080p.BluRay.x264.DTS-iKiW 12.49G

[复制链接]
蓝光币
1084
发表于 2023-1-12 06:05:42 | 显示全部楼层 |阅读模式


◎标  题 昨日的美食 电影版
◎片  名 きのう何食べた?劇場版
◎年  代 2021
◎产  地 日本
◎类  别 剧情 / 同性
◎语  言 日语
◎上映日期 2021-11-03(日本)
◎IMDb评分 7.2/10 (296人评价)
◎IMDb链接 https://www.imdb.com/title/tt14865506/
◎豆瓣评分 7.9/10 (6960人评价)
◎豆瓣链接 https://movie.douban.com/subject/35015968/
◎片  长 120分钟
◎导  演 中江和仁 Kazuhito Nakae
◎编  剧 安达奈绪子 Naoko Adachi
◎演  员 西岛秀俊 Hidetoshi Nishijima
       内野圣阳 Masaaki Uchino
       山本耕史 Kôji Yamamoto
       矶村勇斗 Hayato Isomura
       槙田雄司 Makita Sports
       松村斗极 Hokuto Matsumura
       田中美佐子 Tanaka Misako
       田山凉成 Ryôsei Tayama
       梶芽衣子 Meiko Kaji
       真凛 Marin Honda
       我妻三轮子 Miwako Wagatsuma
       鹫尾真知子 Machiko Washio
       奥贯薰 Kaoru Okunuki
       唯野未步子 Miako Tadano
       户田昌宏 Masahiro Toda
       川合正悟 Chan Kawai
       中村由利佳 Yurika Nakamura
       松山爱里 Airi Matsuyama
       矢柴俊博 Toshihiro Yashiba
       柴崎幸三 Kôzô Shibasaki
◎简  介
  电影版故事中,加入了关键新脚色「田渕刚」,是贤二在美容工作室的小鲜肉同事,这号人物的出现能否让史朗和贤二的关系发生变化?此外,史朗为了庆贺贤二的生日决议例齐截趟「京都观光」,两人在旅途中又将若何向对方敞高兴扉?
  1. Video
  2. ID                                       : 1
  3. Format                                   : AVC
  4. Format/Info                              : Advanced Video Codec
  5. Format profile                           : [email protected]
  6. Format settings                          : CABAC / 4 Ref Frames
  7. Format settings, CABAC                   : Yes
  8. Format settings, Reference frames        : 4 frames
  9. Codec ID                                 : V_MPEG4/ISO/AVC
  10. Duration                                 : 1 h 59 min
  11. Bit rate                                 : 13.4 Mb/s
  12. Width                                    : 1 920 pixels
  13. Height                                   : 1 038 pixels
  14. Display aspect ratio                     : 1.85:1
  15. Frame rate mode                          : Constant
  16. Frame rate                               : 23.976 (24000/1001) FPS
  17. Color space                              : YUV
  18. Chroma subsampling                       : 4:2:0
  19. Bit depth                                : 8 bits
  20. Scan type                                : Progressive
  21. Bits/(Pixel*Frame)                       : 0.281
  22. Stream size                              : 11.2 GiB (90%)
  23. Title                                    : Jubowo @ WiKi
  24. Writing library                          : x264 core 129 r2245+704+36 8e61944 tMod+MixAQ [[email protected]:2:0 X86_64]
  25. Encoding settings                        : cabac=1 / ref=4 / deblock=1:-3:-3 / analyse=0x3:0x133 / me=umh / subme=11 / psy=1 / fade_compensate=0.00 / psy_rd=1.05:0.10 / mixed_ref=1 / me_range=64 / chroma_me=1 / trellis=2 / 8x8dct=1 / cqm=0 / deadzone=21,11 / fast_pskip=0 / chroma_qp_offset=-3 / threads=18 / lookahead_threads=3 / sliced_threads=0 / nr=0 / decimate=0 / interlaced=0 / bluray_compat=0 / constrained_intra=0 / fgo=0 / bframes=12 / b_pyramid=2 / b_adapt=2 / b_bias=0 / direct=3 / weightb=1 / open_gop=0 / weightp=2 / keyint=250 / keyint_min=23 / scenecut=40 / intra_refresh=0 / rc=2pass / mbtree=0 / bitrate=13438 / ratetol=1.0 / qcomp=0.70 / qpmin=0 / qpmax=69 / qpstep=4 / cplxblur=20.0 / qblur=0.5 / ip_ratio=1.40 / pb_ratio=1.30 / aq=1 / aq-strength=0.90 / aq-sensitivity=10.00 / aq-ifactor=1.00 / aq-pfactor=1.00 / aq-bfactor=1.00 / aq2=0
  26. Language                                 : Japanese
  27. Default                                  : Yes
  28. Forced                                   : No
  29. Audio
  30. ID                                       : 2
  31. Format                                   : DTS
  32. Format/Info                              : Digital Theater Systems
  33. Codec ID                                 : A_DTS
  34. Duration                                 : 1 h 59 min
  35. Bit rate mode                            : Constant
  36. Bit rate                                 : 1 509 kb/s
  37. Channel(s)                               : 6 channels
  38. Channel layout                           : C L R Ls Rs LFE
  39. Sampling rate                            : 48.0 kHz
  40. Frame rate                               : 93.750 FPS (512 SPF)
  41. Bit depth                                : 24 bits
  42. Compression mode                         : Lossy
  43. Stream size                              : 1.26 GiB (10%)
  44. Language                                 : Japanese
  45. Default                                  : Yes
  46. Forced                                   : No
  47. Text
  48. ID                                       : 3
  49. Format                                   : UTF-8
  50. Codec ID                                 : S_TEXT/UTF8
  51. Codec ID/Info                            : UTF-8 Plain Text
  52. Duration                                 : 1 h 54 min
  53. Bit rate                                 : 39 b/s
  54. Frame rate                               : 0.169 FPS
  55. Count of elements                        : 1166
  56. Stream size                              : 33.3 KiB (0%)
  57. Language                                 : English
  58. Default                                  : No
  59. Forced                                   : No
  60. Menu
  61. 00:00:00.000                             : en:Chapter 01
  62. 00:19:43.724                             : en:Chapter 02
  63. 00:26:54.363                             : en:Chapter 03
  64. 00:32:52.554                             : en:Chapter 04
  65. 00:43:21.474                             : en:Chapter 05
  66. 00:51:57.948                             : en:Chapter 06
  67. 00:57:57.849                             : en:Chapter 07
  68. 01:04:40.418                             : en:Chapter 08
  69. 01:11:49.680                             : en:Chapter 09
  70. 01:18:09.226                             : en:Chapter 10
  71. 01:20:43.130                             : en:Chapter 11
  72. 01:25:40.052                             : en:Chapter 12
  73. 01:31:50.630                             : en:Chapter 13
  74. 01:40:18.179                             : en:Chapter 14
  75. 01:43:46.512                             : en:Chapter 15
  76. 01:49:34.485                             : en:Chapter 16
  77. 01:59:39.005                             : en:Chapter 17
复制代码











回复

使用道具 举报

蓝光币
799
发表于 2023-1-12 19:08:38 | 显示全部楼层

这个帖子不回对不起自己!我想我是一天也不能离开蓝光电影网。
回复 支持 反对

使用道具 举报

蓝光币
339
发表于 2023-1-14 16:35:31 | 显示全部楼层
日系电影也是挺搞笑的!
回复 支持 反对

使用道具 举报

懒得打字嘛,点击右侧快捷回复 【右侧内容,后台自定义】
您需要登录后才可以回帖 登录 | 立即加入

本版积分规则

Archiver|小黑屋| 蓝光电影网 |网站地图

Copyright © 2021 Comsenz Inc. Powered by 蓝光电影网

蓝光电影网

本站内容由用户自主分享和转载自互联网,转载目的在于传递更多信息,并不代表本网赞同其观点和对其真实性负责。

如有侵权、违反国家法律政策行为,请联系我们,我们会第一时间及时清除和处理!

举报反馈邮箱:[email protected]

快速回复 返回顶部 返回列表