找回密码

蓝光电影网

查看: 69|回复: 1

[剧情] 大智若愚.Nobodys.Fool.1994.REMASTERED.1080p.BluRay.x264.DTS-FGT 10.01GB

[复制链接]
蓝光币
1080
发表于 2023-1-12 06:05:43 | 显示全部楼层 |阅读模式


◎标  题 深藏若虚
◎片  名 Nobody's Fool
◎年  代 1994
◎产  地 美国
◎类  别 剧情
◎语  言 英语
◎上映日期 1994-12-23(美国)
◎IMDb评分 7.3/10 (21166人评价)
◎IMDb链接 https://www.imdb.com/title/tt0110684/
◎豆瓣评分 8.0/10 (1362人评价)
◎豆瓣链接 https://movie.douban.com/subject/1297601/
◎片  长 110 分钟
◎导  演 罗伯特·本顿 Robert Benton
◎编  剧 理查德·拉索 Richard Russo
       罗伯特·本顿 Robert Benton
◎演  员 保罗·纽曼 Paul Newman
       杰西卡·坦迪 Jessica Tandy
       布鲁斯·威利斯 Bruce Willis
       梅兰尼·格里菲斯 Melanie Griffith
       迪伦·沃尔什 Dylan Walsh
       普路特·泰勒·文斯 Pruitt Taylor Vince
       吉恩·萨克斯 Gene Saks
       约瑟夫·索默 Josef Sommer
       菲利普·塞默·霍夫曼 Philip Seymour Hoffman
       菲利普·博斯科 Philip Bosco
       凯瑟琳·丹特 Catherine Dent
       Alexander Goodwin Alexander Goodwin
       卡尔·马图斯维奇 Carl J. Matusovich
       杰·帕特森 Jay Patterson
       杰瑞·梅尔 Jerry Mayer
       爱丽丝·德拉蒙德 Alice Drummond
       玛格·马丁戴尔 Margo Martindale
       安吉丽卡·托恩 Angelica Torn
       Shannah Laumeister Shannah Laumeister
       Page Johnson Page Johnson
       Anibal O. Lleras Anibal O. Lleras
       伊莉莎白·威尔森 Elizabeth Wilson
       迈克尔·豪斯曼 Michael Hausman
       Scott Ferguson Scott Ferguson
       阿琳·多诺万 Arlene Donovan
       霍华德·肖 Howard Shore
       约翰·布卢姆 John Bloom
       Ellen Chenoweth Ellen Chenoweth
       Dan Davis Dan Davis
       Joseph G. Aulisi Joseph G. Aulisi
       金·桑坦托尼奥 Kim Santantonio
       Dale Bach-Siss Dale Bach-Siss
       内奥米·多恩 Naomi Donne
       艾兰·丹格里奥 Alan D'Angerio
       Chitra F. Mojtabai Chitra F. Mojtabai
◎简  介
  演员声势壮盛的文艺小品,包括:保罗.纽曼、布鲁斯.威利斯、梅拉尼.格里菲思、洁西卡.坦迪等。导演是导过《克拉玛对克拉玛》的罗伯特.本顿。剧情以一位本性倔强的老修建工为中心,描写他与方圆的镇民在纽约北部的朴实小镇中过着虽不富足却悠然自得的生活。全片没有太大的戏剧飞腾,但对小镇风情的经营相当做功,保罗.纽曼表演跟他现实年龄相当的老角仍具神出鬼没风彩,获柏林电影节最好男配角奖。
  1. Video
  2. ID                                       : 1
  3. Format                                   : AVC
  4. Format/Info                              : Advanced Video Codec
  5. Format profile                           : [email protected]
  6. Format settings                          : CABAC / 4 Ref Frames
  7. Format settings, CABAC                   : Yes
  8. Format settings, Reference frames        : 4 frames
  9. Codec ID                                 : V_MPEG4/ISO/AVC
  10. Duration                                 : 1 h 50 min
  11. Bit rate                                 : 11.5 Mb/s
  12. Width                                    : 1 920 pixels
  13. Height                                   : 1 036 pixels
  14. Display aspect ratio                     : 1.85:1
  15. Frame rate mode                          : Constant
  16. Frame rate                               : 23.976 (24000/1001) FPS
  17. Color space                              : YUV
  18. Chroma subsampling                       : 4:2:0
  19. Bit depth                                : 8 bits
  20. Scan type                                : Progressive
  21. Bits/(Pixel*Frame)                       : 0.241
  22. Stream size                              : 8.85 GiB (88%)
  23. Writing library                          : x264 core 148 r2748 97eaef2
  24. Encoding settings                        : cabac=1 / ref=4 / deblock=1:-2:-2 / analyse=0x3:0x113 / me=umh / subme=9 / psy=1 / psy_rd=1.00:0.15 / mixed_ref=1 / me_range=16 / chroma_me=1 / trellis=2 / 8x8dct=1 / cqm=0 / deadzone=21,11 / fast_pskip=1 / chroma_qp_offset=-3 / threads=72 / lookahead_threads=3 / sliced_threads=0 / nr=0 / decimate=1 / interlaced=0 / bluray_compat=0 / constrained_intra=0 / bframes=3 / b_pyramid=2 / b_adapt=1 / b_bias=0 / direct=3 / weightb=1 / open_gop=0 / weightp=2 / keyint=250 / keyint_min=25 / scenecut=40 / intra_refresh=0 / rc_lookahead=50 / rc=2pass / mbtree=1 / bitrate=11500 / ratetol=1.0 / qcomp=0.60 / qpmin=0 / qpmax=69 / qpstep=4 / cplxblur=20.0 / qblur=0.5 / vbv_maxrate=31250 / vbv_bufsize=31250 / nal_hrd=none / filler=0 / ip_ratio=1.40 / aq=1:1.00
  25. Language                                 : English
  26. Default                                  : Yes
  27. Forced                                   : No
  28. Audio
  29. ID                                       : 2
  30. Format                                   : DTS
  31. Format/Info                              : Digital Theater Systems
  32. Codec ID                                 : A_DTS
  33. Duration                                 : 1 h 50 min
  34. Bit rate mode                            : Constant
  35. Bit rate                                 : 1 509 kb/s
  36. Channel(s)                               : 6 channels
  37. Channel layout                           : C L R Ls Rs LFE
  38. Sampling rate                            : 48.0 kHz
  39. Frame rate                               : 93.750 FPS (512 SPF)
  40. Bit depth                                : 24 bits
  41. Compression mode                         : Lossy
  42. Stream size                              : 1.16 GiB (12%)
  43. Language                                 : English
  44. Default                                  : Yes
  45. Forced                                   : No
  46. Text #1
  47. ID                                       : 3
  48. Format                                   : UTF-8
  49. Codec ID                                 : S_TEXT/UTF8
  50. Codec ID/Info                            : UTF-8 Plain Text
  51. Duration                                 : 1 h 43 min
  52. Bit rate                                 : 65 b/s
  53. Frame rate                               : 0.281 FPS
  54. Count of elements                        : 1748
  55. Stream size                              : 49.5 KiB (0%)
  56. Language                                 : English
  57. Default                                  : Yes
  58. Forced                                   : No
  59. Text #2
  60. ID                                       : 4
  61. Format                                   : UTF-8
  62. Codec ID                                 : S_TEXT/UTF8
  63. Codec ID/Info                            : UTF-8 Plain Text
  64. Duration                                 : 1 h 46 min
  65. Bit rate                                 : 70 b/s
  66. Frame rate                               : 0.301 FPS
  67. Count of elements                        : 1920
  68. Stream size                              : 54.8 KiB (0%)
  69. Title                                    : SDH
  70. Language                                 : English
  71. Default                                  : No
  72. Forced                                   : No
  73. Menu
  74. 00:00:00.000                             : en:Chapter 00
  75. 00:08:42.230                             : en:Chapter 01
  76. 00:22:40.609                             : en:Chapter 02
  77. 00:40:17.039                             : en:Chapter 03
  78. 01:01:52.375                             : en:Chapter 04
  79. 01:18:23.365                             : en:Chapter 05
  80. 01:34:21.989                             : en:Chapter 06
  81. 01:46:26.338                             : en:Chapter 07
复制代码











回复

使用道具 举报

蓝光币
51
发表于 2023-1-12 18:06:09 来自手机 | 显示全部楼层
经典电影 谢谢分享
回复 支持 反对

使用道具 举报

懒得打字嘛,点击右侧快捷回复 【右侧内容,后台自定义】
您需要登录后才可以回帖 登录 | 立即加入

本版积分规则

Archiver|小黑屋| 蓝光电影网 |网站地图

Copyright © 2021 Comsenz Inc. Powered by 蓝光电影网

蓝光电影网

本站内容由用户自主分享和转载自互联网,转载目的在于传递更多信息,并不代表本网赞同其观点和对其真实性负责。

如有侵权、违反国家法律政策行为,请联系我们,我们会第一时间及时清除和处理!

举报反馈邮箱:[email protected]

快速回复 返回顶部 返回列表