找回密码

蓝光电影网

查看: 128|回复: 1

[剧情] 广东小老虎[国语音轨].Snake.Fist.Fighter.1973.CHINESE.1080p.BluRay.x264.DD2.0-NOGRP 5.56GB

[复制链接]
蓝光币
1080
发表于 2023-1-12 06:05:44 | 显示全部楼层 |阅读模式


◎标  题 广东小山君
◎译  名 香港过客 / 刁手怪招 / 唐山师兄弟 / Master with Cracked Fingers / The Cub Tiger from Kwangtung / Snake Fist Fighter / Marvellous Fists / 必杀铁指拳
◎片  名 廣東小山君
◎年  代 1973
◎产  地 中国香港
◎类  别 剧情 / 笑剧 / 行动
◎语  言 汉语普通话 / 粤语
◎上映日期 1973-03-31(中国香港)
◎IMDb评分 5.2/10 (1935人评价)
◎IMDb链接 https://www.imdb.com/title/tt0068000/
◎豆瓣评分 5.8/10 (1089人评价)
◎豆瓣链接 https://movie.douban.com/subject/1294079/
◎片  长 85分钟
◎导  演 朱牧 Mu Zhu
       魏海峰 Hai-Feng Wei
◎演  员 陈鸿烈 Hung Lieh Chen
       袁日初 Yat Chor Yuen
       袁小田 Siu-tien Yuen
       钱月笙 Yuet Sang Chin
       石天 Dean Shek
       元彪 Biao Yuen
       成龙 Jackie Chan
◎简  介
    龙自小便醉心武术,但由于不能付出学费,只好从旁偷学。其间,巧遇一位武功高强的老叫花,并拜他为师,苦练武功。十年寒暑,龙已经练得一身好武功,并经常路见不服,行侠仗义。其中一次,与一地痞树敌。后来,那地痞找其师父出头,怎料其师父正是龙之杀父仇人。
  1. Video
  2. ID                                       : 1
  3. Format                                   : AVC
  4. Format/Info                              : Advanced Video Codec
  5. Format profile                           : [email protected]
  6. Format settings                          : CABAC / 5 Ref Frames
  7. Format settings, CABAC                   : Yes
  8. Format settings, Reference frames        : 5 frames
  9. Codec ID                                 : V_MPEG4/ISO/AVC
  10. Duration                                 : 1 h 25 min
  11. Bit rate                                 : 8 692 kb/s
  12. Width                                    : 1 920 pixels
  13. Height                                   : 824 pixels
  14. Display aspect ratio                     : 2.35:1
  15. Frame rate mode                          : Constant
  16. Frame rate                               : 23.976 (24000/1001) FPS
  17. Color space                              : YUV
  18. Chroma subsampling                       : 4:2:0
  19. Bit depth                                : 8 bits
  20. Scan type                                : Progressive
  21. Bits/(Pixel*Frame)                       : 0.229
  22. Stream size                              : 5.17 GiB (93%)
  23. Writing library                          : x264 core 164 r3103 941cae6
  24. Encoding settings                        : cabac=1 / ref=5 / deblock=1:-3:-3 / analyse=0x3:0x113 / me=umh / subme=8 / psy=1 / psy_rd=1.00:0.15 / mixed_ref=1 / me_range=16 / chroma_me=1 / trellis=1 / 8x8dct=1 / cqm=0 / deadzone=21,11 / fast_pskip=0 / chroma_qp_offset=-3 / threads=18 / lookahead_threads=3 / sliced_threads=0 / nr=0 / decimate=1 / interlaced=0 / bluray_compat=0 / constrained_intra=0 / bframes=3 / b_pyramid=2 / b_adapt=2 / b_bias=0 / direct=3 / weightb=1 / open_gop=0 / weightp=2 / keyint=250 / keyint_min=23 / scenecut=40 / intra_refresh=0 / rc_lookahead=50 / rc=crf / mbtree=1 / crf=20.0 / qcomp=0.60 / qpmin=0 / qpmax=69 / qpstep=4 / ip_ratio=1.40 / aq=1:1.00
  25. Language                                 : Chinese
  26. Default                                  : No
  27. Forced                                   : No
  28. Color range                              : Limited
  29. Color primaries                          : BT.709
  30. Transfer characteristics                 : BT.709
  31. Matrix coefficients                      : BT.709
  32. Audio
  33. ID                                       : 2
  34. Format                                   : AC-3
  35. Format/Info                              : Audio Coding 3
  36. Commercial name                          : Dolby Digital
  37. Codec ID                                 : A_AC3
  38. Duration                                 : 1 h 25 min
  39. Bit rate mode                            : Constant
  40. Bit rate                                 : 640 kb/s
  41. Channel(s)                               : 2 channels
  42. Channel layout                           : L R
  43. Sampling rate                            : 48.0 kHz
  44. Frame rate                               : 31.250 FPS (1536 SPF)
  45. Compression mode                         : Lossy
  46. Stream size                              : 390 MiB (7%)
  47. Language                                 : Chinese
  48. Service kind                             : Complete Main
  49. Default                                  : Yes
  50. Forced                                   : No
  51. Text
  52. ID                                       : 3
  53. Format                                   : UTF-8
  54. Codec ID                                 : S_TEXT/UTF8
  55. Codec ID/Info                            : UTF-8 Plain Text
  56. Duration                                 : 1 h 22 min
  57. Bit rate                                 : 30 b/s
  58. Frame rate                               : 0.157 FPS
  59. Count of elements                        : 774
  60. Stream size                              : 18.4 KiB (0%)
  61. Language                                 : English
  62. Default                                  : Yes
  63. Forced                                   : No
复制代码











回复

使用道具 举报

蓝光币
717
发表于 2023-1-15 21:47:00 | 显示全部楼层
看看老电影,也是知道过去。
回复 支持 反对

使用道具 举报

懒得打字嘛,点击右侧快捷回复 【右侧内容,后台自定义】
您需要登录后才可以回帖 登录 | 立即加入

本版积分规则

Archiver|小黑屋| 蓝光电影网 |网站地图

Copyright © 2021 Comsenz Inc. Powered by 蓝光电影网

蓝光电影网

本站内容由用户自主分享和转载自互联网,转载目的在于传递更多信息,并不代表本网赞同其观点和对其真实性负责。

如有侵权、违反国家法律政策行为,请联系我们,我们会第一时间及时清除和处理!

举报反馈邮箱:[email protected]

快速回复 返回顶部 返回列表