找回密码

蓝光电影网

查看: 59|回复: 2

[2160p-WEB] 分手的决心.Decision.to.Leave.2022.KOREAN.2160p.WEB-DL.DTS-HD.MA.TrueHD.7.1.Atmos.DV.MKV.x265-DVSUX 25.50GB

[复制链接]
蓝光币
1082
发表于 2023-1-12 06:16:16 | 显示全部楼层 |阅读模式


◎标  题 分手的决心
◎译  名 报复式分手 / Decision to Leave
◎片  名 헤어질 결심
◎年  代 2022
◎产  地 韩国
◎类  别 剧情 / 悬疑 / 犯罪
◎语  言 韩语 / 汉语普通话
◎上映日期 2022-05-23(戛纳电影节) / 2022-06-29(韩国)
◎IMDb评分 7.3/10 (22971人评价)
◎IMDb链接 https://www.imdb.com/title/tt12477480/
◎豆瓣评分 7.6/10 (229666人评价)
◎豆瓣链接 https://movie.douban.com/subject/35073886/
◎片  长 138分钟
◎导  演 朴赞郁 Chan-wook Park
◎编  剧 郑瑞景 Seo-kyeong Jeong
       朴赞郁 Chan-wook Park
◎演  员 汤唯 Wei Tang
       朴海日 Hae-il Park
       李贞贤 Jung-hyun Lee
       朴勇宇 Yong-woo Park
       高庚杓 Kyung-pyo Go
       金信英 Kim Sin-yeong
       郑永琡 Yeong-suk Jeong
       刘承睦 Yoo Seung-Mok
       朴正民 Jeong-min Park
       徐现宇 Seo Hyeon-woo
       郑伊书 Yi-Seo Jung
       李学周 Hak-joo Lee
       郑素利 So-ri Jung
       黄载沅 Hwang Jae-won
       刘台午 Teo Yoo
       崔代勋 Dae-hoon Choi
       高旻示 Min-si Go
       郑荷昙 Hadam Jeong
       陈庸旭 Jin Yong-wook
       朱仁英 In-yeong Joo
       权爀 Hyuk Kwon
       朴赞郁 Chan-wook Park
       李美敬 Miky Lee
       曹英沃 Yeong-wook Jo
       金智龙 Ji-yong Kim
       金尚范 Sang-bum Kim
       柳星姬 Seong-hie Ryu
       金石源 Suk-won Kim
◎简  介
  在山区观察一路谋杀案的海俊(朴海日 饰)碰到了死者的妻子瑞莱(汤唯 饰)。“我担忧他没有从山上返来,以为他终极能够会死。”瑞莱对丈夫的死没有表示出任何冲动的迹象,而且她的行为与哀痛的亲戚截然不同,警方以为她就是怀疑人。当海俊审问和监视瑞莱时,他意想到他正在逐步对她发生兴 趣。与此同时,虽然被控告犯罪,但瑞莱起头对海俊采纳大胆的行动。一个隐瞒真相的怀疑人。同时想要思疑怀疑人的侦察。他们有了分手的决议。
  1. Video
  2. ID                                       : 1
  3. Format                                   : HEVC
  4. Format/Info                              : High Efficiency Video Coding
  5. Format profile                           : Main [email protected]@Main
  6. HDR format                               : Dolby Vision, Version 1.0, dvhe.05.06, BL+RPU
  7. Codec ID                                 : V_MPEGH/ISO/HEVC
  8. Duration                                 : 2 h 18 min
  9. Bit rate                                 : 17.9 Mb/s
  10. Width                                    : 3 840 pixels
  11. Height                                   : 2 160 pixels
  12. Display aspect ratio                     : 16:9
  13. Frame rate mode                          : Constant
  14. Frame rate                               : 24.000 FPS
  15. Color space                              : YUV
  16. Chroma subsampling                       : 4:2:0
  17. Bit depth                                : 10 bits
  18. Bits/(Pixel*Frame)                       : 0.090
  19. Stream size                              : 17.3 GiB (68%)
  20. Default                                  : Yes
  21. Forced                                   : No
  22. Color range                              : Full
  23. Audio #1
  24. ID                                       : 2
  25. ID in the original source medium         : 4353 (0x1101)
  26. Format                                   : MLP FBA 16-ch
  27. Format/Info                              : Meridian Lossless Packing FBA with 16-channel presentation
  28. Commercial name                          : Dolby TrueHD with Dolby Atmos
  29. Codec ID                                 : A_TRUEHD
  30. Duration                                 : 2 h 18 min
  31. Bit rate mode                            : Variable
  32. Bit rate                                 : 4 149 kb/s
  33. Maximum bit rate                         : 7 002 kb/s
  34. Channel(s)                               : 8 channels
  35. Channel layout                           : L R C LFE Ls Rs Lb Rb
  36. Sampling rate                            : 48.0 kHz
  37. Frame rate                               : 1 200.000 FPS (40 SPF)
  38. Compression mode                         : Lossless
  39. Stream size                              : 4.01 GiB (16%)
  40. Language                                 : Korean
  41. Default                                  : Yes
  42. Forced                                   : No
  43. Original source medium                   : Blu-ray
  44. Number of dynamic objects                : 11
  45. Bed channel count                        : 1 channel
  46. Bed channel configuration                : LFE
  47. Audio #2
  48. ID                                       : 3
  49. Format                                   : DTS XLL
  50. Format/Info                              : Digital Theater Systems
  51. Commercial name                          : DTS-HD Master Audio
  52. Codec ID                                 : A_DTS
  53. Duration                                 : 2 h 18 min
  54. Bit rate mode                            : Variable
  55. Bit rate                                 : 3 843 kb/s
  56. Channel(s)                               : 8 channels
  57. Channel layout                           : C L R LFE Lb Rb Lss Rss
  58. Sampling rate                            : 48.0 kHz
  59. Frame rate                               : 93.750 FPS (512 SPF)
  60. Bit depth                                : 24 bits
  61. Compression mode                         : Lossless
  62. Stream size                              : 3.71 GiB (15%)
  63. Language                                 : Korean
  64. Default                                  : No
  65. Forced                                   : No
  66. Audio #3
  67. ID                                       : 4
  68. Format                                   : AC-3
  69. Format/Info                              : Audio Coding 3
  70. Commercial name                          : Dolby Digital
  71. Format settings                          : Dolby Surround EX
  72. Codec ID                                 : A_AC3
  73. Duration                                 : 2 h 18 min
  74. Bit rate mode                            : Constant
  75. Bit rate                                 : 384 kb/s
  76. Channel(s)                               : 6 channels
  77. Channel layout                           : L R C LFE Ls Rs
  78. Sampling rate                            : 48.0 kHz
  79. Frame rate                               : 31.250 FPS (1536 SPF)
  80. Compression mode                         : Lossy
  81. Delay relative to video                  : 30 ms
  82. Stream size                              : 380 MiB (1%)
  83. Title                                    : Compatibility Track
  84. Language                                 : Korean
  85. Service kind                             : Complete Main
  86. Default                                  : No
  87. Forced                                   : No
  88. Text #1
  89. ID                                       : 5
  90. Format                                   : UTF-8
  91. Codec ID                                 : S_TEXT/UTF8
  92. Codec ID/Info                            : UTF-8 Plain Text
  93. Duration                                 : 2 h 12 min
  94. Bit rate                                 : 44 b/s
  95. Frame rate                               : 0.147 FPS
  96. Count of elements                        : 1170
  97. Stream size                              : 42.7 KiB (0%)
  98. Language                                 : English
  99. Default                                  : Yes
  100. Forced                                   : No
  101. Text #2
  102. ID                                       : 6
  103. Format                                   : UTF-8
  104. Codec ID                                 : S_TEXT/UTF8
  105. Codec ID/Info                            : UTF-8 Plain Text
  106. Duration                                 : 1 h 9 min
  107. Bit rate                                 : 0 b/s
  108. Frame rate                               : 0.001 FPS
  109. Count of elements                        : 4
  110. Stream size                              : 67.0 Bytes (0%)
  111. Language                                 : Korean
  112. Default                                  : No
  113. Forced                                   : Yes
  114. Text #3
  115. ID                                       : 7
  116. Format                                   : UTF-8
  117. Codec ID                                 : S_TEXT/UTF8
  118. Codec ID/Info                            : UTF-8 Plain Text
  119. Duration                                 : 2 h 12 min
  120. Bit rate                                 : 44 b/s
  121. Frame rate                               : 0.169 FPS
  122. Count of elements                        : 1341
  123. Stream size                              : 43.1 KiB (0%)
  124. Language                                 : Korean
  125. Default                                  : No
  126. Forced                                   : No
  127. Text #4
  128. ID                                       : 8
  129. Format                                   : UTF-8
  130. Codec ID                                 : S_TEXT/UTF8
  131. Codec ID/Info                            : UTF-8 Plain Text
  132. Duration                                 : 2 h 16 min
  133. Bit rate                                 : 69 b/s
  134. Frame rate                               : 0.244 FPS
  135. Count of elements                        : 2006
  136. Stream size                              : 69.4 KiB (0%)
  137. Title                                    : SDH
  138. Language                                 : Korean
  139. Default                                  : No
  140. Forced                                   : No
  141. Menu
  142. 00:00:00.000                             : Chapter 01
  143. 00:07:45.333                             : Chapter 02
  144. 00:22:48.666                             : Chapter 03
  145. 00:36:58.083                             : Chapter 04
  146. 00:50:24.208                             : Chapter 05
  147. 01:01:09.958                             : Chapter 06
  148. 01:16:49.249                             : Chapter 07
  149. 01:26:14.999                             : Chapter 08
  150. 01:38:28.458                             : Chapter 09
  151. 01:54:40.791                             : Chapter 10
  152. 02:05:11.499                             : Chapter 11
  153. 02:13:06.291                             : Chapter 12
复制代码











回复

使用道具 举报

蓝光币
2262
发表于 2023-1-12 11:18:39 | 显示全部楼层

楼主太厉害了!楼主,电影应该很好看我觉得蓝光电影网真是个好地方!
回复 支持 反对

使用道具 举报

蓝光币
44
发表于 2023-1-12 18:56:04 | 显示全部楼层
楼主太厉害了!
回复 支持 反对

使用道具 举报

懒得打字嘛,点击右侧快捷回复 【右侧内容,后台自定义】
您需要登录后才可以回帖 登录 | 立即加入

本版积分规则

Archiver|小黑屋| 蓝光电影网 |网站地图

Copyright © 2021 Comsenz Inc. Powered by 蓝光电影网

蓝光电影网

本站内容由用户自主分享和转载自互联网,转载目的在于传递更多信息,并不代表本网赞同其观点和对其真实性负责。

如有侵权、违反国家法律政策行为,请联系我们,我们会第一时间及时清除和处理!

举报反馈邮箱:[email protected]

快速回复 返回顶部 返回列表