找回密码

蓝光电影网

查看: 134|回复: 2

[2160p-WEB] 失宠[中文字幕].A.Fall.From.Grace.2020.2160p.NF.WEB-DL.x265.10bit.SDR.DDP5.1.Atmos-XEBEC 14.41GB

[复制链接]
蓝光币
1084
发表于 2023-1-12 16:18:32 | 显示全部楼层 |阅读模式


◎标  题 得宠
◎译  名 葛蕾丝的坠落(港 / 台) / Rupture fatale
◎片  名 A Fall from Grace
◎年  代 2020
◎产  地 美国
◎类  别 惊悚
◎语  言 英语
◎上映日期 2020-01-17(美国)
◎IMDb评分 5.9/10 (15881人评价)
◎IMDb链接 https://www.imdb.com/title/tt11390036/
◎豆瓣评分 6.6/10 (2686人评价)
◎豆瓣链接 https://movie.douban.com/subject/34937473/
◎片  长 120分钟
◎导  演 泰勒·派瑞 Tyler Perry
◎编  剧 泰勒·派瑞 Tyler Perry
◎演  员 亚德里安·帕斯达 Adrian Pasdar
       泰勒·派瑞 Tyler Perry
       西西莉·泰森 Cicely Tyson
       菲利西亚·拉斯海德 Phylicia Rashad
       布莱莎·韦伯 Bresha Webb
       麦卡德·布鲁克斯 Mehcad Brooks
       桑德拉·埃利斯·拉弗蒂 Sandra Ellis Lafferty
       内森·安德森 Nathan Anderson
       迈克尔·罗斯 Michael Rose
       小詹姆斯·希利 James Healy Jr.
       詹姆斯·威廉·巴拉德 James William Ballard
◎简  介
    格蕾丝·沃特斯(克丽丝特尔·福克斯饰)自前夫出轨后就一向没精打彩,一段新的爱情让她重新抖擞了起来。但当奥秘毁掉了她长久的欢畅,格蕾丝懦弱的一面就酿成了暴力之源。一部冲动听心的惊悚片,由菲利西亚·拉斯海德、布莱莎·韦伯、西西莉·泰森和编剧/导演泰勒·派瑞携手主演。
  1. Video
  2. ID                                       : 1
  3. Format                                   : HEVC
  4. Format/Info                              : High Efficiency Video Coding
  5. Format profile                           : Main [email protected]@Main
  6. Codec ID                                 : V_MPEGH/ISO/HEVC
  7. Duration                                 : 2 h 0 min
  8. Bit rate                                 : 16.3 Mb/s
  9. Width                                    : 3 840 pixels
  10. Height                                   : 2 160 pixels
  11. Display aspect ratio                     : 16:9
  12. Frame rate mode                          : Constant
  13. Frame rate                               : 23.976 (24000/1001) FPS
  14. Color space                              : YUV
  15. Chroma subsampling                       : 4:2:0
  16. Bit depth                                : 10 bits
  17. Bits/(Pixel*Frame)                       : 0.082
  18. Stream size                              : 13.8 GiB (95%)
  19. Default                                  : Yes
  20. Forced                                   : No
  21. Color range                              : Limited
  22. Color primaries                          : BT.709
  23. Transfer characteristics                 : BT.709
  24. Matrix coefficients                      : BT.709
  25. Audio
  26. ID                                       : 2
  27. Format                                   : E-AC-3 JOC
  28. Format/Info                              : Enhanced AC-3 with Joint Object Coding
  29. Commercial name                          : Dolby Digital Plus with Dolby Atmos
  30. Codec ID                                 : A_EAC3
  31. Duration                                 : 2 h 0 min
  32. Bit rate mode                            : Constant
  33. Bit rate                                 : 768 kb/s
  34. Channel(s)                               : 6 channels
  35. Channel layout                           : L R C LFE Ls Rs
  36. Sampling rate                            : 48.0 kHz
  37. Frame rate                               : 31.250 FPS (1536 SPF)
  38. Compression mode                         : Lossy
  39. Stream size                              : 663 MiB (4%)
  40. Title                                    : English
  41. Language                                 : English
  42. Service kind                             : Complete Main
  43. Default                                  : Yes
  44. Forced                                   : No
  45. Complexity index                         : 16
  46. Number of dynamic objects                : 15
  47. Bed channel count                        : 1 channel
  48. Bed channel configuration                : LFE
  49. Text #1
  50. ID                                       : 3
  51. Format                                   : UTF-8
  52. Codec ID                                 : S_TEXT/UTF8
  53. Codec ID/Info                            : UTF-8 Plain Text
  54. Duration                                 : 1 h 59 min
  55. Bit rate                                 : 117 b/s
  56. Frame rate                               : 0.284 FPS
  57. Count of elements                        : 2042
  58. Stream size                              : 104 KiB (0%)
  59. Title                                    : Arabic
  60. Language                                 : Arabic
  61. Default                                  : No
  62. Forced                                   : No
  63. Text #2
  64. ID                                       : 4
  65. Format                                   : UTF-8
  66. Codec ID                                 : S_TEXT/UTF8
  67. Codec ID/Info                            : UTF-8 Plain Text
  68. Duration                                 : 1 h 53 min
  69. Bit rate                                 : 64 b/s
  70. Frame rate                               : 0.287 FPS
  71. Count of elements                        : 1962
  72. Stream size                              : 53.7 KiB (0%)
  73. Title                                    : Czech
  74. Language                                 : Czech
  75. Default                                  : No
  76. Forced                                   : No
  77. Text #3
  78. ID                                       : 5
  79. Format                                   : UTF-8
  80. Codec ID                                 : S_TEXT/UTF8
  81. Codec ID/Info                            : UTF-8 Plain Text
  82. Duration                                 : 1 h 53 min
  83. Bit rate                                 : 65 b/s
  84. Frame rate                               : 0.262 FPS
  85. Count of elements                        : 1790
  86. Stream size                              : 54.9 KiB (0%)
  87. Title                                    : Danish
  88. Language                                 : Danish
  89. Default                                  : No
  90. Forced                                   : No
  91. Text #4
  92. ID                                       : 6
  93. Format                                   : UTF-8
  94. Codec ID                                 : S_TEXT/UTF8
  95. Codec ID/Info                            : UTF-8 Plain Text
  96. Duration                                 : 1 h 53 min
  97. Bit rate                                 : 69 b/s
  98. Frame rate                               : 0.278 FPS
  99. Count of elements                        : 1900
  100. Stream size                              : 58.0 KiB (0%)
  101. Title                                    : German
  102. Language                                 : German
  103. Default                                  : No
  104. Forced                                   : No
  105. Text #5
  106. ID                                       : 7
  107. Format                                   : UTF-8
  108. Codec ID                                 : S_TEXT/UTF8
  109. Codec ID/Info                            : UTF-8 Plain Text
  110. Duration                                 : 1 h 53 min
  111. Bit rate                                 : 113 b/s
  112. Frame rate                               : 0.296 FPS
  113. Count of elements                        : 2022
  114. Stream size                              : 94.9 KiB (0%)
  115. Title                                    : Modern Greek (1453-)
  116. Language                                 : Greek
  117. Default                                  : No
  118. Forced                                   : No
  119. Text #6
  120. ID                                       : 8
  121. Format                                   : UTF-8
  122. Codec ID                                 : S_TEXT/UTF8
  123. Codec ID/Info                            : UTF-8 Plain Text
  124. Duration                                 : 1 h 53 min
  125. Bit rate                                 : 85 b/s
  126. Frame rate                               : 0.328 FPS
  127. Count of elements                        : 2242
  128. Stream size                              : 71.5 KiB (0%)
  129. Title                                    : English (SDH)
  130. Language                                 : English
  131. Default                                  : No
  132. Forced                                   : No
  133. Text #7
  134. ID                                       : 9
  135. Format                                   : UTF-8
  136. Codec ID                                 : S_TEXT/UTF8
  137. Codec ID/Info                            : UTF-8 Plain Text
  138. Duration                                 : 1 h 53 min
  139. Bit rate                                 : 65 b/s
  140. Frame rate                               : 0.291 FPS
  141. Count of elements                        : 1990
  142. Stream size                              : 54.5 KiB (0%)
  143. Title                                    : Spanish
  144. Language                                 : Spanish
  145. Default                                  : No
  146. Forced                                   : No
  147. Text #8
  148. ID                                       : 10
  149. Format                                   : UTF-8
  150. Codec ID                                 : S_TEXT/UTF8
  151. Codec ID/Info                            : UTF-8 Plain Text
  152. Duration                                 : 1 h 53 min
  153. Bit rate                                 : 63 b/s
  154. Frame rate                               : 0.285 FPS
  155. Count of elements                        : 1946
  156. Stream size                              : 52.8 KiB (0%)
  157. Title                                    : Spanish
  158. Language                                 : Spanish
  159. Default                                  : No
  160. Forced                                   : No
  161. Text #9
  162. ID                                       : 11
  163. Format                                   : UTF-8
  164. Codec ID                                 : S_TEXT/UTF8
  165. Codec ID/Info                            : UTF-8 Plain Text
  166. Duration                                 : 1 h 59 min
  167. Bit rate                                 : 64 b/s
  168. Frame rate                               : 0.257 FPS
  169. Count of elements                        : 1845
  170. Stream size                              : 56.6 KiB (0%)
  171. Title                                    : Finnish
  172. Language                                 : Finnish
  173. Default                                  : No
  174. Forced                                   : No
  175. Text #10
  176. ID                                       : 12
  177. Format                                   : UTF-8
  178. Codec ID                                 : S_TEXT/UTF8
  179. Codec ID/Info                            : UTF-8 Plain Text
  180. Duration                                 : 1 h 59 min
  181. Bit rate                                 : 70 b/s
  182. Frame rate                               : 0.279 FPS
  183. Count of elements                        : 1996
  184. Stream size                              : 61.3 KiB (0%)
  185. Title                                    : French
  186. Language                                 : French
  187. Default                                  : No
  188. Forced                                   : No
  189. Text #11
  190. ID                                       : 13
  191. Format                                   : UTF-8
  192. Codec ID                                 : S_TEXT/UTF8
  193. Codec ID/Info                            : UTF-8 Plain Text
  194. Duration                                 : 1 h 53 min
  195. Bit rate                                 : 108 b/s
  196. Frame rate                               : 0.295 FPS
  197. Count of elements                        : 2017
  198. Stream size                              : 90.8 KiB (0%)
  199. Title                                    : Hebrew
  200. Language                                 : Hebrew
  201. Default                                  : No
  202. Forced                                   : No
  203. Text #12
  204. ID                                       : 14
  205. Format                                   : UTF-8
  206. Codec ID                                 : S_TEXT/UTF8
  207. Codec ID/Info                            : UTF-8 Plain Text
  208. Duration                                 : 1 h 53 min
  209. Bit rate                                 : 201 b/s
  210. Frame rate                               : 0.303 FPS
  211. Count of elements                        : 2071
  212. Stream size                              : 168 KiB (0%)
  213. Title                                    : Hindi
  214. Language                                 : Hindi
  215. Default                                  : No
  216. Forced                                   : No
  217. Text #13
  218. ID                                       : 15
  219. Format                                   : UTF-8
  220. Codec ID                                 : S_TEXT/UTF8
  221. Codec ID/Info                            : UTF-8 Plain Text
  222. Duration                                 : 1 h 59 min
  223. Bit rate                                 : 65 b/s
  224. Frame rate                               : 0.287 FPS
  225. Count of elements                        : 2056
  226. Stream size                              : 57.0 KiB (0%)
  227. Title                                    : Hungarian
  228. Language                                 : Hungarian
  229. Default                                  : No
  230. Forced                                   : No
  231. Text #14
  232. ID                                       : 16
  233. Format                                   : UTF-8
  234. Codec ID                                 : S_TEXT/UTF8
  235. Codec ID/Info                            : UTF-8 Plain Text
  236. Duration                                 : 1 h 53 min
  237. Bit rate                                 : 64 b/s
  238. Frame rate                               : 0.299 FPS
  239. Count of elements                        : 2045
  240. Stream size                              : 53.5 KiB (0%)
  241. Title                                    : Indonesian
  242. Language                                 : Indonesian
  243. Default                                  : No
  244. Forced                                   : No
  245. Text #15
  246. ID                                       : 17
  247. Format                                   : UTF-8
  248. Codec ID                                 : S_TEXT/UTF8
  249. Codec ID/Info                            : UTF-8 Plain Text
  250. Duration                                 : 1 h 53 min
  251. Bit rate                                 : 63 b/s
  252. Frame rate                               : 0.285 FPS
  253. Count of elements                        : 1949
  254. Stream size                              : 53.0 KiB (0%)
  255. Title                                    : Italian
  256. Language                                 : Italian
  257. Default                                  : No
  258. Forced                                   : No
  259. Text #16
  260. ID                                       : 18
  261. Format                                   : UTF-8
  262. Codec ID                                 : S_TEXT/UTF8
  263. Codec ID/Info                            : UTF-8 Plain Text
  264. Duration                                 : 1 h 53 min
  265. Bit rate                                 : 68 b/s
  266. Frame rate                               : 0.284 FPS
  267. Count of elements                        : 1937
  268. Stream size                              : 57.0 KiB (0%)
  269. Title                                    : Japanese
  270. Language                                 : Japanese
  271. Default                                  : No
  272. Forced                                   : No
  273. Text #17
  274. ID                                       : 19
  275. Format                                   : UTF-8
  276. Codec ID                                 : S_TEXT/UTF8
  277. Codec ID/Info                            : UTF-8 Plain Text
  278. Duration                                 : 1 h 53 min
  279. Bit rate                                 : 93 b/s
  280. Frame rate                               : 0.305 FPS
  281. Count of elements                        : 2080
  282. Stream size                              : 78.2 KiB (0%)
  283. Title                                    : Korean
  284. Language                                 : Korean
  285. Default                                  : No
  286. Forced                                   : No
  287. Text #18
  288. ID                                       : 20
  289. Format                                   : UTF-8
  290. Codec ID                                 : S_TEXT/UTF8
  291. Codec ID/Info                            : UTF-8 Plain Text
  292. Duration                                 : 1 h 53 min
  293. Bit rate                                 : 65 b/s
  294. Frame rate                               : 0.254 FPS
  295. Count of elements                        : 1734
  296. Stream size                              : 54.8 KiB (0%)
  297. Title                                    : Norwegian Bokm?l
  298. Language                                 : Norwegian Bokmal
  299. Default                                  : No
  300. Forced                                   : No
  301. Text #19
  302. ID                                       : 21
  303. Format                                   : UTF-8
  304. Codec ID                                 : S_TEXT/UTF8
  305. Codec ID/Info                            : UTF-8 Plain Text
  306. Duration                                 : 1 h 53 min
  307. Bit rate                                 : 68 b/s
  308. Frame rate                               : 0.227 FPS
  309. Count of elements                        : 1550
  310. Stream size                              : 56.9 KiB (0%)
  311. Title                                    : Dutch
  312. Language                                 : Dutch
  313. Default                                  : No
  314. Forced                                   : No
  315. Text #20
  316. ID                                       : 22
  317. Format                                   : UTF-8
  318. Codec ID                                 : S_TEXT/UTF8
  319. Codec ID/Info                            : UTF-8 Plain Text
  320. Duration                                 : 1 h 53 min
  321. Bit rate                                 : 59 b/s
  322. Frame rate                               : 0.298 FPS
  323. Count of elements                        : 2032
  324. Stream size                              : 49.4 KiB (0%)
  325. Title                                    : Polish
  326. Language                                 : Polish
  327. Default                                  : No
  328. Forced                                   : No
  329. Text #21
  330. ID                                       : 23
  331. Format                                   : UTF-8
  332. Codec ID                                 : S_TEXT/UTF8
  333. Codec ID/Info                            : UTF-8 Plain Text
  334. Duration                                 : 1 h 59 min
  335. Bit rate                                 : 67 b/s
  336. Frame rate                               : 0.294 FPS
  337. Count of elements                        : 2113
  338. Stream size                              : 59.2 KiB (0%)
  339. Title                                    : Portuguese
  340. Language                                 : Portuguese
  341. Default                                  : No
  342. Forced                                   : No
  343. Text #22
  344. ID                                       : 24
  345. Format                                   : UTF-8
  346. Codec ID                                 : S_TEXT/UTF8
  347. Codec ID/Info                            : UTF-8 Plain Text
  348. Duration                                 : 1 h 59 min
  349. Bit rate                                 : 67 b/s
  350. Frame rate                               : 0.282 FPS
  351. Count of elements                        : 2026
  352. Stream size                              : 59.5 KiB (0%)
  353. Title                                    : Portuguese
  354. Language                                 : Portuguese
  355. Default                                  : No
  356. Forced                                   : No
  357. Text #23
  358. ID                                       : 25
  359. Format                                   : UTF-8
  360. Codec ID                                 : S_TEXT/UTF8
  361. Codec ID/Info                            : UTF-8 Plain Text
  362. Duration                                 : 1 h 53 min
  363. Bit rate                                 : 78 b/s
  364. Frame rate                               : 0.281 FPS
  365. Count of elements                        : 1922
  366. Stream size                              : 65.7 KiB (0%)
  367. Title                                    : Romanian
  368. Language                                 : Romanian
  369. Default                                  : No
  370. Forced                                   : No
  371. Text #24
  372. ID                                       : 26
  373. Format                                   : UTF-8
  374. Codec ID                                 : S_TEXT/UTF8
  375. Codec ID/Info                            : UTF-8 Plain Text
  376. Duration                                 : 1 h 53 min
  377. Bit rate                                 : 110 b/s
  378. Frame rate                               : 0.299 FPS
  379. Count of elements                        : 2045
  380. Stream size                              : 92.1 KiB (0%)
  381. Title                                    : Russian
  382. Language                                 : Russian
  383. Default                                  : No
  384. Forced                                   : No
  385. Text #25
  386. ID                                       : 27
  387. Format                                   : UTF-8
  388. Codec ID                                 : S_TEXT/UTF8
  389. Codec ID/Info                            : UTF-8 Plain Text
  390. Duration                                 : 1 h 59 min
  391. Bit rate                                 : 64 b/s
  392. Frame rate                               : 0.195 FPS
  393. Count of elements                        : 1399
  394. Stream size                              : 56.8 KiB (0%)
  395. Title                                    : Swedish
  396. Language                                 : Swedish
  397. Default                                  : No
  398. Forced                                   : No
  399. Text #26
  400. ID                                       : 28
  401. Format                                   : UTF-8
  402. Codec ID                                 : S_TEXT/UTF8
  403. Codec ID/Info                            : UTF-8 Plain Text
  404. Duration                                 : 1 h 53 min
  405. Bit rate                                 : 198 b/s
  406. Frame rate                               : 0.307 FPS
  407. Count of elements                        : 2100
  408. Stream size                              : 165 KiB (0%)
  409. Title                                    : Thai
  410. Language                                 : Thai
  411. Default                                  : No
  412. Forced                                   : No
  413. Text #27
  414. ID                                       : 29
  415. Format                                   : UTF-8
  416. Codec ID                                 : S_TEXT/UTF8
  417. Codec ID/Info                            : UTF-8 Plain Text
  418. Duration                                 : 1 h 53 min
  419. Bit rate                                 : 69 b/s
  420. Frame rate                               : 0.270 FPS
  421. Count of elements                        : 1844
  422. Stream size                              : 57.5 KiB (0%)
  423. Title                                    : Turkish
  424. Language                                 : Turkish
  425. Default                                  : No
  426. Forced                                   : No
  427. Text #28
  428. ID                                       : 30
  429. Format                                   : UTF-8
  430. Codec ID                                 : S_TEXT/UTF8
  431. Codec ID/Info                            : UTF-8 Plain Text
  432. Duration                                 : 1 h 53 min
  433. Bit rate                                 : 94 b/s
  434. Frame rate                               : 0.292 FPS
  435. Count of elements                        : 1992
  436. Stream size                              : 79.0 KiB (0%)
  437. Title                                    : Vietnamese
  438. Language                                 : Vietnamese
  439. Default                                  : No
  440. Forced                                   : No
  441. Text #29
  442. ID                                       : 31
  443. Format                                   : UTF-8
  444. Codec ID                                 : S_TEXT/UTF8
  445. Codec ID/Info                            : UTF-8 Plain Text
  446. Duration                                 : 1 h 53 min
  447. Bit rate                                 : 74 b/s
  448. Frame rate                               : 0.304 FPS
  449. Count of elements                        : 2076
  450. Stream size                              : 62.0 KiB (0%)
  451. Title                                    : Simplified, Chinese
  452. Language                                 : Chinese
  453. Default                                  : No
  454. Forced                                   : No
  455. Text #30
  456. ID                                       : 32
  457. Format                                   : UTF-8
  458. Codec ID                                 : S_TEXT/UTF8
  459. Codec ID/Info                            : UTF-8 Plain Text
  460. Duration                                 : 1 h 53 min
  461. Bit rate                                 : 70 b/s
  462. Frame rate                               : 0.304 FPS
  463. Count of elements                        : 2074
  464. Stream size                              : 58.6 KiB (0%)
  465. Title                                    : Traditional, Chinese
  466. Language                                 : Chinese
  467. Default                                  : No
  468. Forced                                   : No
  469. Menu
  470. 00:00:00.000                             : en:Part 01
  471. 01:54:37.450                             : en:Credits
复制代码











回复

使用道具 举报

蓝光币
92
发表于 2023-1-12 23:11:31 | 显示全部楼层

这东西我收了!谢谢楼主!蓝光电影网真好!
回复 支持 反对

使用道具 举报

蓝光币
15
发表于 2023-1-13 09:02:42 | 显示全部楼层
楼主发贴辛苦了,谢谢楼主分享!我觉得蓝光电影网是注册对了!
回复 支持 反对

使用道具 举报

懒得打字嘛,点击右侧快捷回复 【右侧内容,后台自定义】
您需要登录后才可以回帖 登录 | 立即加入

本版积分规则

Archiver|小黑屋| 蓝光电影网 |网站地图

Copyright © 2021 Comsenz Inc. Powered by 蓝光电影网

蓝光电影网

本站内容由用户自主分享和转载自互联网,转载目的在于传递更多信息,并不代表本网赞同其观点和对其真实性负责。

如有侵权、违反国家法律政策行为,请联系我们,我们会第一时间及时清除和处理!

举报反馈邮箱:[email protected]

快速回复 返回顶部 返回列表