找回密码

蓝光电影网

查看: 226|回复: 2

[2160p-WEB] 耍宝警探[中文字幕].The.Takedown.2022.FRENCH.2160p.NF.WEB-DL.x265.10bit.SDR.DDP5.1.Atmos-XEBEC 15.58GB

[复制链接]
蓝光币
1082
发表于 2023-1-12 16:18:36 | 显示全部楼层 |阅读模式


◎标  题 耍宝警探
◎译  名 The Takedown / Les Gars Sûrs / 负气干探再出更(港) / 城郊的另一边2
◎片  名 Loin du périph
◎年  代 2022
◎产  地 法国
◎类  别 笑剧 / 行动
◎语  言 法语
◎上映日期 2022-05-06(法国收集)
◎IMDb评分 5.7/10 (7261人评价)
◎IMDb链接 https://www.imdb.com/title/tt13822738/
◎豆瓣评分 5.9/10 (582人评价)
◎豆瓣链接 https://movie.douban.com/subject/35410040/
◎片  长 119分钟
◎导  演 路易斯·莱特里尔 Louis Leterrier
◎编  剧 斯特凡纳·卡赞吉安 Stéphane Kazandjian
◎演  员 奥玛·希 Omar Sy
       罗兰·拉斐特 Laurent Lafitte
       德米特里·斯托罗奇 Dimitri Storoge
       卢卡·奎因 Luka Quinn
       伊兹雅·海格林 Izïa Higelin
◎简  介
  两名分歧拍的差人十年后被迫再次同伴,来到一座四分五裂的法国小镇观察一路谋杀案。在那边,更大的诡计浮出水面。
  1. Video
  2. ID                                       : 1
  3. Format                                   : HEVC
  4. Format/Info                              : High Efficiency Video Coding
  5. Format profile                           : Main [email protected]@Main
  6. Codec ID                                 : V_MPEGH/ISO/HEVC
  7. Duration                                 : 2 h 1 min
  8. Bit rate                                 : 17.0 Mb/s
  9. Width                                    : 3 840 pixels
  10. Height                                   : 2 160 pixels
  11. Display aspect ratio                     : 16:9
  12. Frame rate mode                          : Constant
  13. Frame rate                               : 24.000 FPS
  14. Color space                              : YUV
  15. Chroma subsampling                       : 4:2:0
  16. Bit depth                                : 10 bits
  17. Bits/(Pixel*Frame)                       : 0.085
  18. Stream size                              : 14.4 GiB (92%)
  19. Default                                  : Yes
  20. Forced                                   : No
  21. Color range                              : Limited
  22. Color primaries                          : BT.709
  23. Transfer characteristics                 : BT.709
  24. Matrix coefficients                      : BT.709
  25. Audio #1
  26. ID                                       : 2
  27. Format                                   : E-AC-3 JOC
  28. Format/Info                              : Enhanced AC-3 with Joint Object Coding
  29. Commercial name                          : Dolby Digital Plus with Dolby Atmos
  30. Codec ID                                 : A_EAC3
  31. Duration                                 : 2 h 1 min
  32. Bit rate mode                            : Constant
  33. Bit rate                                 : 768 kb/s
  34. Channel(s)                               : 6 channels
  35. Channel layout                           : L R C LFE Ls Rs
  36. Sampling rate                            : 48.0 kHz
  37. Frame rate                               : 31.250 FPS (1536 SPF)
  38. Compression mode                         : Lossy
  39. Stream size                              : 667 MiB (4%)
  40. Title                                    : French
  41. Language                                 : French
  42. Service kind                             : Complete Main
  43. Default                                  : Yes
  44. Forced                                   : No
  45. Complexity index                         : 16
  46. Number of dynamic objects                : 15
  47. Bed channel count                        : 1 channel
  48. Bed channel configuration                : LFE
  49. Audio #2
  50. ID                                       : 3
  51. Format                                   : E-AC-3
  52. Format/Info                              : Enhanced AC-3
  53. Commercial name                          : Dolby Digital Plus
  54. Codec ID                                 : A_EAC3
  55. Duration                                 : 2 h 1 min
  56. Bit rate mode                            : Constant
  57. Bit rate                                 : 640 kb/s
  58. Channel(s)                               : 6 channels
  59. Channel layout                           : L R C LFE Ls Rs
  60. Sampling rate                            : 48.0 kHz
  61. Frame rate                               : 31.250 FPS (1536 SPF)
  62. Compression mode                         : Lossy
  63. Stream size                              : 555 MiB (3%)
  64. Title                                    : English
  65. Language                                 : English
  66. Service kind                             : Complete Main
  67. Default                                  : No
  68. Forced                                   : No
  69. Text #1
  70. ID                                       : 4
  71. Format                                   : UTF-8
  72. Codec ID                                 : S_TEXT/UTF8
  73. Codec ID/Info                            : UTF-8 Plain Text
  74. Duration                                 : 1 h 53 min
  75. Bit rate                                 : 0 b/s
  76. Frame rate                               : 0.003 FPS
  77. Count of elements                        : 20
  78. Stream size                              : 501 Bytes (0%)
  79. Title                                    : English (Forced)
  80. Language                                 : English
  81. Default                                  : No
  82. Forced                                   : Yes
  83. Text #2
  84. ID                                       : 5
  85. Format                                   : UTF-8
  86. Codec ID                                 : S_TEXT/UTF8
  87. Codec ID/Info                            : UTF-8 Plain Text
  88. Duration                                 : 27 s 84 ms
  89. Bit rate                                 : 76 b/s
  90. Frame rate                               : 0.222 FPS
  91. Count of elements                        : 6
  92. Stream size                              : 260 Bytes (0%)
  93. Title                                    : French (Forced)
  94. Language                                 : French
  95. Default                                  : Yes
  96. Forced                                   : Yes
  97. Text #3
  98. ID                                       : 6
  99. Format                                   : UTF-8
  100. Codec ID                                 : S_TEXT/UTF8
  101. Codec ID/Info                            : UTF-8 Plain Text
  102. Duration                                 : 1 h 54 min
  103. Bit rate                                 : 113 b/s
  104. Frame rate                               : 0.267 FPS
  105. Count of elements                        : 1839
  106. Stream size                              : 95.0 KiB (0%)
  107. Title                                    : Arabic
  108. Language                                 : Arabic
  109. Default                                  : No
  110. Forced                                   : No
  111. Text #4
  112. ID                                       : 7
  113. Format                                   : UTF-8
  114. Codec ID                                 : S_TEXT/UTF8
  115. Codec ID/Info                            : UTF-8 Plain Text
  116. Duration                                 : 1 h 59 min
  117. Bit rate                                 : 57 b/s
  118. Frame rate                               : 0.253 FPS
  119. Count of elements                        : 1808
  120. Stream size                              : 50.1 KiB (0%)
  121. Title                                    : Catalan
  122. Language                                 : Catalan
  123. Default                                  : No
  124. Forced                                   : No
  125. Text #5
  126. ID                                       : 8
  127. Format                                   : UTF-8
  128. Codec ID                                 : S_TEXT/UTF8
  129. Codec ID/Info                            : UTF-8 Plain Text
  130. Duration                                 : 1 h 59 min
  131. Bit rate                                 : 58 b/s
  132. Frame rate                               : 0.253 FPS
  133. Count of elements                        : 1815
  134. Stream size                              : 51.5 KiB (0%)
  135. Title                                    : Czech
  136. Language                                 : Czech
  137. Default                                  : No
  138. Forced                                   : No
  139. Text #6
  140. ID                                       : 9
  141. Format                                   : UTF-8
  142. Codec ID                                 : S_TEXT/UTF8
  143. Codec ID/Info                            : UTF-8 Plain Text
  144. Duration                                 : 1 h 59 min
  145. Bit rate                                 : 54 b/s
  146. Frame rate                               : 0.244 FPS
  147. Count of elements                        : 1747
  148. Stream size                              : 47.5 KiB (0%)
  149. Title                                    : Danish
  150. Language                                 : Danish
  151. Default                                  : No
  152. Forced                                   : No
  153. Text #7
  154. ID                                       : 10
  155. Format                                   : UTF-8
  156. Codec ID                                 : S_TEXT/UTF8
  157. Codec ID/Info                            : UTF-8 Plain Text
  158. Duration                                 : 1 h 59 min
  159. Bit rate                                 : 58 b/s
  160. Frame rate                               : 0.256 FPS
  161. Count of elements                        : 1835
  162. Stream size                              : 51.3 KiB (0%)
  163. Title                                    : German
  164. Language                                 : German
  165. Default                                  : No
  166. Forced                                   : No
  167. Text #8
  168. ID                                       : 11
  169. Format                                   : UTF-8
  170. Codec ID                                 : S_TEXT/UTF8
  171. Codec ID/Info                            : UTF-8 Plain Text
  172. Duration                                 : 1 h 59 min
  173. Bit rate                                 : 97 b/s
  174. Frame rate                               : 0.256 FPS
  175. Count of elements                        : 1835
  176. Stream size                              : 84.9 KiB (0%)
  177. Title                                    : Modern Greek (1453-)
  178. Language                                 : Greek
  179. Default                                  : No
  180. Forced                                   : No
  181. Text #9
  182. ID                                       : 12
  183. Format                                   : UTF-8
  184. Codec ID                                 : S_TEXT/UTF8
  185. Codec ID/Info                            : UTF-8 Plain Text
  186. Duration                                 : 1 h 54 min
  187. Bit rate                                 : 77 b/s
  188. Frame rate                               : 0.287 FPS
  189. Count of elements                        : 1978
  190. Stream size                              : 65.3 KiB (0%)
  191. Title                                    : English
  192. Language                                 : English
  193. Default                                  : No
  194. Forced                                   : No
  195. Text #10
  196. ID                                       : 13
  197. Format                                   : UTF-8
  198. Codec ID                                 : S_TEXT/UTF8
  199. Codec ID/Info                            : UTF-8 Plain Text
  200. Duration                                 : 1 h 54 min
  201. Bit rate                                 : 64 b/s
  202. Frame rate                               : 0.270 FPS
  203. Count of elements                        : 1859
  204. Stream size                              : 54.5 KiB (0%)
  205. Title                                    : English
  206. Language                                 : English
  207. Default                                  : No
  208. Forced                                   : No
  209. Text #11
  210. ID                                       : 14
  211. Format                                   : UTF-8
  212. Codec ID                                 : S_TEXT/UTF8
  213. Codec ID/Info                            : UTF-8 Plain Text
  214. Duration                                 : 1 h 54 min
  215. Bit rate                                 : 89 b/s
  216. Frame rate                               : 0.328 FPS
  217. Count of elements                        : 2256
  218. Stream size                              : 75.6 KiB (0%)
  219. Title                                    : English (SDH)
  220. Language                                 : English
  221. Default                                  : No
  222. Forced                                   : No
  223. Text #12
  224. ID                                       : 15
  225. Format                                   : UTF-8
  226. Codec ID                                 : S_TEXT/UTF8
  227. Codec ID/Info                            : UTF-8 Plain Text
  228. Duration                                 : 1 h 54 min
  229. Bit rate                                 : 74 b/s
  230. Frame rate                               : 0.273 FPS
  231. Count of elements                        : 1876
  232. Stream size                              : 62.2 KiB (0%)
  233. Title                                    : Spanish
  234. Language                                 : Spanish
  235. Default                                  : No
  236. Forced                                   : No
  237. Text #13
  238. ID                                       : 16
  239. Format                                   : UTF-8
  240. Codec ID                                 : S_TEXT/UTF8
  241. Codec ID/Info                            : UTF-8 Plain Text
  242. Duration                                 : 1 h 59 min
  243. Bit rate                                 : 59 b/s
  244. Frame rate                               : 0.254 FPS
  245. Count of elements                        : 1822
  246. Stream size                              : 51.9 KiB (0%)
  247. Title                                    : Spanish
  248. Language                                 : Spanish
  249. Default                                  : No
  250. Forced                                   : No
  251. Text #14
  252. ID                                       : 17
  253. Format                                   : UTF-8
  254. Codec ID                                 : S_TEXT/UTF8
  255. Codec ID/Info                            : UTF-8 Plain Text
  256. Duration                                 : 1 h 54 min
  257. Bit rate                                 : 81 b/s
  258. Frame rate                               : 0.302 FPS
  259. Count of elements                        : 2082
  260. Stream size                              : 68.4 KiB (0%)
  261. Title                                    : Spanish (SDH)
  262. Language                                 : Spanish
  263. Default                                  : No
  264. Forced                                   : No
  265. Text #15
  266. ID                                       : 18
  267. Format                                   : UTF-8
  268. Codec ID                                 : S_TEXT/UTF8
  269. Codec ID/Info                            : UTF-8 Plain Text
  270. Duration                                 : 1 h 59 min
  271. Bit rate                                 : 60 b/s
  272. Frame rate                               : 0.252 FPS
  273. Count of elements                        : 1804
  274. Stream size                              : 52.9 KiB (0%)
  275. Title                                    : Spanish
  276. Language                                 : Spanish
  277. Default                                  : No
  278. Forced                                   : No
  279. Text #16
  280. ID                                       : 19
  281. Format                                   : UTF-8
  282. Codec ID                                 : S_TEXT/UTF8
  283. Codec ID/Info                            : UTF-8 Plain Text
  284. Duration                                 : 1 h 59 min
  285. Bit rate                                 : 57 b/s
  286. Frame rate                               : 0.251 FPS
  287. Count of elements                        : 1797
  288. Stream size                              : 50.3 KiB (0%)
  289. Title                                    : Basque
  290. Language                                 : Basque
  291. Default                                  : No
  292. Forced                                   : No
  293. Text #17
  294. ID                                       : 20
  295. Format                                   : UTF-8
  296. Codec ID                                 : S_TEXT/UTF8
  297. Codec ID/Info                            : UTF-8 Plain Text
  298. Duration                                 : 1 h 59 min
  299. Bit rate                                 : 58 b/s
  300. Frame rate                               : 0.204 FPS
  301. Count of elements                        : 1463
  302. Stream size                              : 51.2 KiB (0%)
  303. Title                                    : Finnish
  304. Language                                 : Finnish
  305. Default                                  : No
  306. Forced                                   : No
  307. Text #18
  308. ID                                       : 21
  309. Format                                   : UTF-8
  310. Codec ID                                 : S_TEXT/UTF8
  311. Codec ID/Info                            : UTF-8 Plain Text
  312. Duration                                 : 1 h 54 min
  313. Bit rate                                 : 71 b/s
  314. Frame rate                               : 0.255 FPS
  315. Count of elements                        : 1751
  316. Stream size                              : 59.6 KiB (0%)
  317. Title                                    : French
  318. Language                                 : French
  319. Default                                  : No
  320. Forced                                   : No
  321. Text #19
  322. ID                                       : 22
  323. Format                                   : UTF-8
  324. Codec ID                                 : S_TEXT/UTF8
  325. Codec ID/Info                            : UTF-8 Plain Text
  326. Duration                                 : 1 h 54 min
  327. Bit rate                                 : 77 b/s
  328. Frame rate                               : 0.281 FPS
  329. Count of elements                        : 1930
  330. Stream size                              : 65.4 KiB (0%)
  331. Title                                    : French (SDH)
  332. Language                                 : French
  333. Default                                  : No
  334. Forced                                   : No
  335. Text #20
  336. ID                                       : 23
  337. Format                                   : UTF-8
  338. Codec ID                                 : S_TEXT/UTF8
  339. Codec ID/Info                            : UTF-8 Plain Text
  340. Duration                                 : 1 h 59 min
  341. Bit rate                                 : 57 b/s
  342. Frame rate                               : 0.256 FPS
  343. Count of elements                        : 1833
  344. Stream size                              : 50.6 KiB (0%)
  345. Title                                    : Galician
  346. Language                                 : Galician
  347. Default                                  : No
  348. Forced                                   : No
  349. Text #21
  350. ID                                       : 24
  351. Format                                   : UTF-8
  352. Codec ID                                 : S_TEXT/UTF8
  353. Codec ID/Info                            : UTF-8 Plain Text
  354. Duration                                 : 1 h 59 min
  355. Bit rate                                 : 103 b/s
  356. Frame rate                               : 0.255 FPS
  357. Count of elements                        : 1827
  358. Stream size                              : 90.8 KiB (0%)
  359. Title                                    : Hebrew
  360. Language                                 : Hebrew
  361. Default                                  : No
  362. Forced                                   : No
  363. Text #22
  364. ID                                       : 25
  365. Format                                   : UTF-8
  366. Codec ID                                 : S_TEXT/UTF8
  367. Codec ID/Info                            : UTF-8 Plain Text
  368. Duration                                 : 1 h 59 min
  369. Bit rate                                 : 50 b/s
  370. Frame rate                               : 0.253 FPS
  371. Count of elements                        : 1808
  372. Stream size                              : 44.4 KiB (0%)
  373. Title                                    : Croatian
  374. Language                                 : Croatian
  375. Default                                  : No
  376. Forced                                   : No
  377. Text #23
  378. ID                                       : 26
  379. Format                                   : UTF-8
  380. Codec ID                                 : S_TEXT/UTF8
  381. Codec ID/Info                            : UTF-8 Plain Text
  382. Duration                                 : 1 h 59 min
  383. Bit rate                                 : 64 b/s
  384. Frame rate                               : 0.229 FPS
  385. Count of elements                        : 1640
  386. Stream size                              : 55.9 KiB (0%)
  387. Title                                    : Hungarian
  388. Language                                 : Hungarian
  389. Default                                  : No
  390. Forced                                   : No
  391. Text #24
  392. ID                                       : 27
  393. Format                                   : UTF-8
  394. Codec ID                                 : S_TEXT/UTF8
  395. Codec ID/Info                            : UTF-8 Plain Text
  396. Duration                                 : 1 h 59 min
  397. Bit rate                                 : 59 b/s
  398. Frame rate                               : 0.259 FPS
  399. Count of elements                        : 1851
  400. Stream size                              : 52.1 KiB (0%)
  401. Title                                    : Indonesian
  402. Language                                 : Indonesian
  403. Default                                  : No
  404. Forced                                   : No
  405. Text #25
  406. ID                                       : 28
  407. Format                                   : UTF-8
  408. Codec ID                                 : S_TEXT/UTF8
  409. Codec ID/Info                            : UTF-8 Plain Text
  410. Duration                                 : 1 h 59 min
  411. Bit rate                                 : 57 b/s
  412. Frame rate                               : 0.249 FPS
  413. Count of elements                        : 1784
  414. Stream size                              : 49.8 KiB (0%)
  415. Title                                    : Italian
  416. Language                                 : Italian
  417. Default                                  : No
  418. Forced                                   : No
  419. Text #26
  420. ID                                       : 29
  421. Format                                   : UTF-8
  422. Codec ID                                 : S_TEXT/UTF8
  423. Codec ID/Info                            : UTF-8 Plain Text
  424. Duration                                 : 1 h 54 min
  425. Bit rate                                 : 62 b/s
  426. Frame rate                               : 0.304 FPS
  427. Count of elements                        : 2093
  428. Stream size                              : 52.6 KiB (0%)
  429. Title                                    : Japanese
  430. Language                                 : Japanese
  431. Default                                  : No
  432. Forced                                   : No
  433. Text #27
  434. ID                                       : 30
  435. Format                                   : UTF-8
  436. Codec ID                                 : S_TEXT/UTF8
  437. Codec ID/Info                            : UTF-8 Plain Text
  438. Duration                                 : 1 h 59 min
  439. Bit rate                                 : 79 b/s
  440. Frame rate                               : 0.265 FPS
  441. Count of elements                        : 1897
  442. Stream size                              : 69.6 KiB (0%)
  443. Title                                    : Korean
  444. Language                                 : Korean
  445. Default                                  : No
  446. Forced                                   : No
  447. Text #28
  448. ID                                       : 31
  449. Format                                   : UTF-8
  450. Codec ID                                 : S_TEXT/UTF8
  451. Codec ID/Info                            : UTF-8 Plain Text
  452. Duration                                 : 1 h 59 min
  453. Bit rate                                 : 57 b/s
  454. Frame rate                               : 0.255 FPS
  455. Count of elements                        : 1827
  456. Stream size                              : 50.0 KiB (0%)
  457. Title                                    : Malay (macrolanguage)
  458. Language                                 : Malay
  459. Default                                  : No
  460. Forced                                   : No
  461. Text #29
  462. ID                                       : 32
  463. Format                                   : UTF-8
  464. Codec ID                                 : S_TEXT/UTF8
  465. Codec ID/Info                            : UTF-8 Plain Text
  466. Duration                                 : 1 h 59 min
  467. Bit rate                                 : 54 b/s
  468. Frame rate                               : 0.235 FPS
  469. Count of elements                        : 1684
  470. Stream size                              : 47.9 KiB (0%)
  471. Title                                    : Norwegian Bokm?l
  472. Language                                 : Norwegian Bokmal
  473. Default                                  : No
  474. Forced                                   : No
  475. Text #30
  476. ID                                       : 33
  477. Format                                   : UTF-8
  478. Codec ID                                 : S_TEXT/UTF8
  479. Codec ID/Info                            : UTF-8 Plain Text
  480. Duration                                 : 1 h 59 min
  481. Bit rate                                 : 57 b/s
  482. Frame rate                               : 0.225 FPS
  483. Count of elements                        : 1608
  484. Stream size                              : 50.6 KiB (0%)
  485. Title                                    : Dutch
  486. Language                                 : Dutch
  487. Default                                  : No
  488. Forced                                   : No
  489. Text #31
  490. ID                                       : 34
  491. Format                                   : UTF-8
  492. Codec ID                                 : S_TEXT/UTF8
  493. Codec ID/Info                            : UTF-8 Plain Text
  494. Duration                                 : 1 h 59 min
  495. Bit rate                                 : 56 b/s
  496. Frame rate                               : 0.257 FPS
  497. Count of elements                        : 1837
  498. Stream size                              : 48.9 KiB (0%)
  499. Title                                    : Polish
  500. Language                                 : Polish
  501. Default                                  : No
  502. Forced                                   : No
  503. Text #32
  504. ID                                       : 35
  505. Format                                   : UTF-8
  506. Codec ID                                 : S_TEXT/UTF8
  507. Codec ID/Info                            : UTF-8 Plain Text
  508. Duration                                 : 1 h 54 min
  509. Bit rate                                 : 80 b/s
  510. Frame rate                               : 0.294 FPS
  511. Count of elements                        : 2020
  512. Stream size                              : 67.4 KiB (0%)
  513. Title                                    : Portuguese
  514. Language                                 : Portuguese
  515. Default                                  : No
  516. Forced                                   : No
  517. Text #33
  518. ID                                       : 36
  519. Format                                   : UTF-8
  520. Codec ID                                 : S_TEXT/UTF8
  521. Codec ID/Info                            : UTF-8 Plain Text
  522. Duration                                 : 1 h 59 min
  523. Bit rate                                 : 58 b/s
  524. Frame rate                               : 0.256 FPS
  525. Count of elements                        : 1835
  526. Stream size                              : 50.8 KiB (0%)
  527. Title                                    : Portuguese
  528. Language                                 : Portuguese
  529. Default                                  : No
  530. Forced                                   : No
  531. Text #34
  532. ID                                       : 37
  533. Format                                   : UTF-8
  534. Codec ID                                 : S_TEXT/UTF8
  535. Codec ID/Info                            : UTF-8 Plain Text
  536. Duration                                 : 1 h 59 min
  537. Bit rate                                 : 88 b/s
  538. Frame rate                               : 0.324 FPS
  539. Count of elements                        : 2320
  540. Stream size                              : 77.8 KiB (0%)
  541. Title                                    : Portuguese (SDH)
  542. Language                                 : Portuguese
  543. Default                                  : No
  544. Forced                                   : No
  545. Text #35
  546. ID                                       : 38
  547. Format                                   : UTF-8
  548. Codec ID                                 : S_TEXT/UTF8
  549. Codec ID/Info                            : UTF-8 Plain Text
  550. Duration                                 : 1 h 59 min
  551. Bit rate                                 : 61 b/s
  552. Frame rate                               : 0.249 FPS
  553. Count of elements                        : 1781
  554. Stream size                              : 54.1 KiB (0%)
  555. Title                                    : Portuguese
  556. Language                                 : Portuguese
  557. Default                                  : No
  558. Forced                                   : No
  559. Text #36
  560. ID                                       : 39
  561. Format                                   : UTF-8
  562. Codec ID                                 : S_TEXT/UTF8
  563. Codec ID/Info                            : UTF-8 Plain Text
  564. Duration                                 : 1 h 59 min
  565. Bit rate                                 : 66 b/s
  566. Frame rate                               : 0.256 FPS
  567. Count of elements                        : 1830
  568. Stream size                              : 58.4 KiB (0%)
  569. Title                                    : Romanian
  570. Language                                 : Romanian
  571. Default                                  : No
  572. Forced                                   : No
  573. Text #37
  574. ID                                       : 40
  575. Format                                   : UTF-8
  576. Codec ID                                 : S_TEXT/UTF8
  577. Codec ID/Info                            : UTF-8 Plain Text
  578. Duration                                 : 1 h 59 min
  579. Bit rate                                 : 94 b/s
  580. Frame rate                               : 0.257 FPS
  581. Count of elements                        : 1842
  582. Stream size                              : 82.5 KiB (0%)
  583. Title                                    : Russian
  584. Language                                 : Russian
  585. Default                                  : No
  586. Forced                                   : No
  587. Text #38
  588. ID                                       : 41
  589. Format                                   : UTF-8
  590. Codec ID                                 : S_TEXT/UTF8
  591. Codec ID/Info                            : UTF-8 Plain Text
  592. Duration                                 : 1 h 59 min
  593. Bit rate                                 : 56 b/s
  594. Frame rate                               : 0.232 FPS
  595. Count of elements                        : 1660
  596. Stream size                              : 49.5 KiB (0%)
  597. Title                                    : Swedish
  598. Language                                 : Swedish
  599. Default                                  : No
  600. Forced                                   : No
  601. Text #39
  602. ID                                       : 42
  603. Format                                   : UTF-8
  604. Codec ID                                 : S_TEXT/UTF8
  605. Codec ID/Info                            : UTF-8 Plain Text
  606. Duration                                 : 1 h 59 min
  607. Bit rate                                 : 155 b/s
  608. Frame rate                               : 0.261 FPS
  609. Count of elements                        : 1867
  610. Stream size                              : 136 KiB (0%)
  611. Title                                    : Thai
  612. Language                                 : Thai
  613. Default                                  : No
  614. Forced                                   : No
  615. Text #40
  616. ID                                       : 43
  617. Format                                   : UTF-8
  618. Codec ID                                 : S_TEXT/UTF8
  619. Codec ID/Info                            : UTF-8 Plain Text
  620. Duration                                 : 1 h 59 min
  621. Bit rate                                 : 61 b/s
  622. Frame rate                               : 0.245 FPS
  623. Count of elements                        : 1756
  624. Stream size                              : 54.1 KiB (0%)
  625. Title                                    : Turkish
  626. Language                                 : Turkish
  627. Default                                  : No
  628. Forced                                   : No
  629. Text #41
  630. ID                                       : 44
  631. Format                                   : UTF-8
  632. Codec ID                                 : S_TEXT/UTF8
  633. Codec ID/Info                            : UTF-8 Plain Text
  634. Duration                                 : 1 h 59 min
  635. Bit rate                                 : 92 b/s
  636. Frame rate                               : 0.253 FPS
  637. Count of elements                        : 1814
  638. Stream size                              : 81.1 KiB (0%)
  639. Title                                    : Ukrainian
  640. Language                                 : Ukrainian
  641. Default                                  : No
  642. Forced                                   : No
  643. Text #42
  644. ID                                       : 45
  645. Format                                   : UTF-8
  646. Codec ID                                 : S_TEXT/UTF8
  647. Codec ID/Info                            : UTF-8 Plain Text
  648. Duration                                 : 1 h 59 min
  649. Bit rate                                 : 84 b/s
  650. Frame rate                               : 0.234 FPS
  651. Count of elements                        : 1673
  652. Stream size                              : 73.9 KiB (0%)
  653. Title                                    : Vietnamese
  654. Language                                 : Vietnamese
  655. Default                                  : No
  656. Forced                                   : No
  657. Text #43
  658. ID                                       : 46
  659. Format                                   : UTF-8
  660. Codec ID                                 : S_TEXT/UTF8
  661. Codec ID/Info                            : UTF-8 Plain Text
  662. Duration                                 : 1 h 59 min
  663. Bit rate                                 : 72 b/s
  664. Frame rate                               : 0.259 FPS
  665. Count of elements                        : 1854
  666. Stream size                              : 63.2 KiB (0%)
  667. Title                                    : Simplified, Chinese
  668. Language                                 : Chinese
  669. Default                                  : No
  670. Forced                                   : No
  671. Text #44
  672. ID                                       : 47
  673. Format                                   : UTF-8
  674. Codec ID                                 : S_TEXT/UTF8
  675. Codec ID/Info                            : UTF-8 Plain Text
  676. Duration                                 : 1 h 59 min
  677. Bit rate                                 : 63 b/s
  678. Frame rate                               : 0.259 FPS
  679. Count of elements                        : 1856
  680. Stream size                              : 55.9 KiB (0%)
  681. Title                                    : Traditional, Chinese
  682. Language                                 : Chinese
  683. Default                                  : No
  684. Forced                                   : No
  685. Menu
  686. 00:00:00.000                             : en:Part 01
  687. 01:55:01.450                             : en:Credits
复制代码











回复

使用道具 举报

蓝光币
1962
发表于 2023-1-13 20:10:27 | 显示全部楼层
太好啦&萬分感謝版主的無私發佈分享%
回复 支持 反对

使用道具 举报

蓝光币
464
发表于 2023-1-15 00:03:59 | 显示全部楼层

其实我一直觉得楼主的品味不错!呵呵!蓝光电影网太棒了!
回复 支持 反对

使用道具 举报

懒得打字嘛,点击右侧快捷回复 【右侧内容,后台自定义】
您需要登录后才可以回帖 登录 | 立即加入

本版积分规则

Archiver|小黑屋| 蓝光电影网 |网站地图

Copyright © 2021 Comsenz Inc. Powered by 蓝光电影网

蓝光电影网

本站内容由用户自主分享和转载自互联网,转载目的在于传递更多信息,并不代表本网赞同其观点和对其真实性负责。

如有侵权、违反国家法律政策行为,请联系我们,我们会第一时间及时清除和处理!

举报反馈邮箱:[email protected]

快速回复 返回顶部 返回列表