找回密码

蓝光电影网

查看: 12|回复: 0

[剧情] 白色城市.Lost.in.the.White.City.2014.1080p.AMZN.WEBRip.DDP2.0.x264-PTerWEB 5.70GB

[复制链接]
蓝光币
1082
发表于 2023-1-12 18:06:14 | 显示全部楼层 |阅读模式


◎译  名 红色城市
◎片  名 Lost in the White City
◎年  代 2014
◎产  地 美国
◎类  别 剧情 / 恋爱 / 同性
◎语  言 英语
◎IMDb链接 https://www.imdb.com/title/tt2873280/
◎豆瓣链接 https://movie.douban.com/subject/24858094/
◎片  长 91分钟
◎导  演 吉尔·考夫曼 Gil Kofman
◎演  员 托马斯·戴克 Thomas Dekker
       海莉·贝内特 Haley Bennett
       鲍勃·莫雷 Bob Morley
◎简  介
  Kyle and Eva are American art school students in the midst of a tumultuous breakup. In an attempt to rebuild their relationship and recharge their artistic inspirations, they retreat to Tel Aviv. Amongst the tense political environment, the couple parties and crumbles just as the people and city around them do the same. When Avi, a soldier fresh out of the Israeli army enters t...
  1. Video
  2. ID                                       : 1
  3. Format                                   : AVC
  4. Format/Info                              : Advanced Video Codec
  5. Format profile                           : [email protected]
  6. Format settings                          : CABAC / 4 Ref Frames
  7. Format settings, CABAC                   : Yes
  8. Format settings, Reference frames        : 4 frames
  9. Codec ID                                 : V_MPEG4/ISO/AVC
  10. Duration                                 : 1 h 32 min
  11. Bit rate                                 : 8 639 kb/s
  12. Width                                    : 1 920 pixels
  13. Height                                   : 1 080 pixels
  14. Display aspect ratio                     : 16:9
  15. Frame rate mode                          : Constant
  16. Frame rate                               : 23.976 (24000/1001) FPS
  17. Color space                              : YUV
  18. Chroma subsampling                       : 4:2:0
  19. Bit depth                                : 8 bits
  20. Scan type                                : Progressive
  21. Bits/(Pixel*Frame)                       : 0.174
  22. Stream size                              : 5.55 GiB (97%)
  23. Default                                  : Yes
  24. Forced                                   : No
  25. Color range                              : Limited
  26. Color primaries                          : BT.709
  27. Transfer characteristics                 : BT.709
  28. Matrix coefficients                      : BT.709
  29. Audio
  30. ID                                       : 2
  31. Format                                   : E-AC-3
  32. Format/Info                              : Enhanced AC-3
  33. Commercial name                          : Dolby Digital Plus
  34. Codec ID                                 : A_EAC3
  35. Duration                                 : 1 h 32 min
  36. Bit rate mode                            : Constant
  37. Bit rate                                 : 224 kb/s
  38. Channel(s)                               : 2 channels
  39. Channel layout                           : L R
  40. Sampling rate                            : 48.0 kHz
  41. Frame rate                               : 31.250 FPS (1536 SPF)
  42. Compression mode                         : Lossy
  43. Stream size                              : 147 MiB (3%)
  44. Language                                 : English
  45. Service kind                             : Complete Main
  46. Default                                  : Yes
  47. Forced                                   : No
  48. Text
  49. ID                                       : 3
  50. Format                                   : UTF-8
  51. Codec ID                                 : S_TEXT/UTF8
  52. Codec ID/Info                            : UTF-8 Plain Text
  53. Duration                                 : 1 h 28 min
  54. Bit rate                                 : 47 b/s
  55. Frame rate                               : 0.308 FPS
  56. Count of elements                        : 1644
  57. Stream size                              : 31.2 KiB (0%)
  58. Language                                 : English
  59. Default                                  : No
  60. Forced                                   : No
复制代码











回复

使用道具 举报

懒得打字嘛,点击右侧快捷回复 【右侧内容,后台自定义】
您需要登录后才可以回帖 登录 | 立即加入

本版积分规则

Archiver|小黑屋| 蓝光电影网 |网站地图

Copyright © 2021 Comsenz Inc. Powered by 蓝光电影网

蓝光电影网

本站内容由用户自主分享和转载自互联网,转载目的在于传递更多信息,并不代表本网赞同其观点和对其真实性负责。

如有侵权、违反国家法律政策行为,请联系我们,我们会第一时间及时清除和处理!

举报反馈邮箱:[email protected]

快速回复 返回顶部 返回列表