找回密码

蓝光电影网

查看: 26|回复: 0

[剧情] 婆婆.Mistress.2017.VIETNAMESE.ENSUBBED.1080p.AMZN.WEBRip.DDP2.0.x264-RSG 5.85GB

[复制链接]
蓝光币
1084
发表于 2023-1-12 18:06:15 | 显示全部楼层 |阅读模式


◎译  名 婆婆
◎片  名 M? ch?ng
◎年  代 2017
◎产  地 越南
◎类  别 剧情 / 恋爱 / 家庭
◎上映日期 2017-12-01(越南)
◎IMDb链接 https://www.imdb.com/title/tt7294644/
◎豆瓣链接 https://movie.douban.com/subject/27163321/
◎导  演 李明胜 Minh Thang Ly
       黎善远 Le Thien Vien
◎演  员 青恒 Thanh Hang
       玉娟 Ngoc Quyen
       艳眉 Diem My
       邓氏美蓉 Midu
       陈玉兰圭 Tr?n Ng?c Lan Khuê
       林荣海 Lam Vinh H?i
  1. Video
  2. ID                                       : 1
  3. Format                                   : AVC
  4. Format/Info                              : Advanced Video Codec
  5. Format profile                           : [email protected]
  6. Format settings                          : CABAC / 4 Ref Frames
  7. Format settings, CABAC                   : Yes
  8. Format settings, Reference frames        : 4 frames
  9. Codec ID                                 : V_MPEG4/ISO/AVC
  10. Duration                                 : 1 h 38 min
  11. Bit rate mode                            : Constant
  12. Bit rate                                 : 8 293 kb/s
  13. Nominal bit rate                         : 10 000 kb/s
  14. Width                                    : 1 920 pixels
  15. Height                                   : 800 pixels
  16. Display aspect ratio                     : 2.40:1
  17. Frame rate mode                          : Constant
  18. Frame rate                               : 24.000 FPS
  19. Color space                              : YUV
  20. Chroma subsampling                       : 4:2:0
  21. Bit depth                                : 8 bits
  22. Scan type                                : Progressive
  23. Bits/(Pixel*Frame)                       : 0.225
  24. Stream size                              : 5.70 GiB (97%)
  25. Title                                    : Mistress.2017.1080p.AMZN.HC.WEB-DL.DDP2.0.H.264-RSG
  26. Default                                  : Yes
  27. Forced                                   : No
  28. Color range                              : Limited
  29. Color primaries                          : BT.709
  30. Transfer characteristics                 : BT.709
  31. Matrix coefficients                      : BT.709
  32. Audio
  33. ID                                       : 2
  34. Format                                   : E-AC-3
  35. Format/Info                              : Enhanced AC-3
  36. Commercial name                          : Dolby Digital Plus
  37. Codec ID                                 : A_EAC3
  38. Duration                                 : 1 h 38 min
  39. Bit rate mode                            : Constant
  40. Bit rate                                 : 224 kb/s
  41. Channel(s)                               : 2 channels
  42. Channel layout                           : L R
  43. Sampling rate                            : 48.0 kHz
  44. Frame rate                               : 31.250 FPS (1536 SPF)
  45. Compression mode                         : Lossy
  46. Stream size                              : 158 MiB (3%)
  47. Title                                    : Mistress.2017.1080p.AMZN.HC.WEB-DL.DDP2.0.H.264-RSG
  48. Language                                 : Vietnamese
  49. Service kind                             : Complete Main
  50. Default                                  : Yes
  51. Forced                                   : No
复制代码











回复

使用道具 举报

懒得打字嘛,点击右侧快捷回复 【右侧内容,后台自定义】
您需要登录后才可以回帖 登录 | 立即加入

本版积分规则

Archiver|小黑屋| 蓝光电影网 |网站地图

Copyright © 2021 Comsenz Inc. Powered by 蓝光电影网

蓝光电影网

本站内容由用户自主分享和转载自互联网,转载目的在于传递更多信息,并不代表本网赞同其观点和对其真实性负责。

如有侵权、违反国家法律政策行为,请联系我们,我们会第一时间及时清除和处理!

举报反馈邮箱:[email protected]

快速回复 返回顶部 返回列表