找回密码

蓝光电影网

查看: 26|回复: 0

[喜剧] 肥女孩.Phat.Girlz.2006.1080p.AMZN.WEBRip.DDP5.1.x264-ABM 9.07GB

[复制链接]
蓝光币
1082
发表于 2023-1-12 18:06:15 | 显示全部楼层 |阅读模式


◎标  题 肥女孩
◎译  名 肥妹有情天
◎片  名 Phat Girlz
◎年  代 2006
◎产  地 美国
◎类  别 笑剧
◎语  言 英语
◎上映日期 2006-04-07
◎IMDb评分 3.2/10 (9064人评价)
◎IMDb链接 https://www.imdb.com/title/tt0490196/
◎豆瓣评分 6.7/10 (354人评价)
◎豆瓣链接 https://movie.douban.com/subject/1763863/
◎片  长 USA: 99 分钟
◎导  演 Nnegest Likké Nnegest Likké
◎编  剧 Nnegest Likké Nnegest Likké
◎演  员 莫妮克 Mo'Nique
       吉米·让-刘易斯 Jimmy Jean-Louis
        Kelli Jackson
        Kendra C. Johnson
        Rebecca Guzman
        Julia Simmons
       Nnegest Likké Nnegest Likké
       达约·阿德 Dayo Ade
       卡拉·杰弗瑞 Carla Jeffery
       卡拉·吉门内斯 Carla Jimenez
       Chrisianna Puryear Chrisianna Puryear
       Mark Anthony Williams Mark Anthony Williams
       戈弗雷·丹奇马 Godfrey
       Liam Stone Liam Stone
       杰克·诺斯沃迪 Jack Noseworthy
       Bobbi Billard Bobbi Billard
       瑞雯·古德温 Raven Goodwin
       菲利斯·皮雷 Felix Pire
       艾恩 奥福曼 Ion Overman
       Elise Muller Elise Muller
       丹妮卡谢里丹 Danica Sheridan
       Raymond T. Williams Raymond T. Williams
       乔伊芙·德雷克 Joyful Drake
       埃里克·罗伯茨 Eric Roberts
       史蒂文·J·沃尔夫 Steven J. Wolfe
       Robert F. Newmyer Robert F. Newmyer
       莫妮克 Mo'Nique
       Stephen Endelman Stephen Endelman
       John L. Demps Jr. John L. Demps Jr.
       迪恩·雷恩特 Dean Lent
       Leah Daniels Leah Daniels
       Monica Swann Monica Swann
       沃伦·艾兰·扬 Warren Alan Young
       Natasha Baumgardner Natasha Baumgardner
       Thomas E. Nicholson Thomas E. Nicholson
◎简  介
  首先要声明一点,站在我们眼前的大块头肥妞贾兹敏·比特摩尔可没披挂什么橡胶皮囊,她是个名副其实的肥妹有情天,虽然她在人前一副“性感肥妞”代言人的气派,可心里压根就不相信是由于脂肪而美丽。                                    
                                贾斯敏与惺惺相惜的挚交斯特西深信三件事:她们都不满足于在布鲁姆菲尔德女性时髦用品店的伙计生活;她们憎恨修长女孩儿;她们需要汉子,虽然两人对此不抱希望。贾斯敏有个胡想,就是成为时髦设想师,专为肥妞们设想打扮……
  1. Video
  2. ID                                       : 1
  3. Format                                   : AVC
  4. Format/Info                              : Advanced Video Codec
  5. Format profile                           : [email protected]
  6. Format settings                          : CABAC / 4 Ref Frames
  7. Format settings, CABAC                   : Yes
  8. Format settings, Reference frames        : 4 frames
  9. Codec ID                                 : V_MPEG4/ISO/AVC
  10. Duration                                 : 1 h 38 min
  11. Bit rate mode                            : Variable
  12. Bit rate                                 : 12.3 Mb/s
  13. Maximum bit rate                         : 15.0 Mb/s
  14. Width                                    : 1 920 pixels
  15. Height                                   : 1 080 pixels
  16. Display aspect ratio                     : 16:9
  17. Frame rate mode                          : Constant
  18. Frame rate                               : 23.976 (24000/1001) FPS
  19. Color space                              : YUV
  20. Chroma subsampling                       : 4:2:0
  21. Bit depth                                : 8 bits
  22. Scan type                                : Progressive
  23. Bits/(Pixel*Frame)                       : 0.247
  24. Stream size                              : 8.45 GiB (93%)
  25. Language                                 : English
  26. Default                                  : Yes
  27. Forced                                   : No
  28. Color range                              : Limited
  29. Color primaries                          : BT.709
  30. Transfer characteristics                 : BT.709
  31. Matrix coefficients                      : BT.709
  32. Audio
  33. ID                                       : 2
  34. Format                                   : E-AC-3
  35. Format/Info                              : Enhanced AC-3
  36. Commercial name                          : Dolby Digital Plus
  37. Codec ID                                 : A_EAC3
  38. Duration                                 : 1 h 38 min
  39. Bit rate mode                            : Constant
  40. Bit rate                                 : 640 kb/s
  41. Channel(s)                               : 6 channels
  42. Channel layout                           : L R C LFE Ls Rs
  43. Sampling rate                            : 48.0 kHz
  44. Frame rate                               : 31.250 FPS (1536 SPF)
  45. Compression mode                         : Lossy
  46. Stream size                              : 451 MiB (5%)
  47. Language                                 : English
  48. Service kind                             : Complete Main
  49. Default                                  : Yes
  50. Forced                                   : No
  51. Text #1
  52. ID                                       : 3
  53. Format                                   : UTF-8
  54. Codec ID                                 : S_TEXT/UTF8
  55. Codec ID/Info                            : UTF-8 Plain Text
  56. Language                                 : English
  57. Default                                  : No
  58. Forced                                   : No
  59. Text #2
  60. ID                                       : 4
  61. Format                                   : UTF-8
  62. Codec ID                                 : S_TEXT/UTF8
  63. Codec ID/Info                            : UTF-8 Plain Text
  64. Title                                    : SDH
  65. Language                                 : English
  66. Default                                  : No
  67. Forced                                   : No
复制代码











回复

使用道具 举报

懒得打字嘛,点击右侧快捷回复 【右侧内容,后台自定义】
您需要登录后才可以回帖 登录 | 立即加入

本版积分规则

Archiver|小黑屋| 蓝光电影网 |网站地图

Copyright © 2021 Comsenz Inc. Powered by 蓝光电影网

蓝光电影网

本站内容由用户自主分享和转载自互联网,转载目的在于传递更多信息,并不代表本网赞同其观点和对其真实性负责。

如有侵权、违反国家法律政策行为,请联系我们,我们会第一时间及时清除和处理!

举报反馈邮箱:[email protected]

快速回复 返回顶部 返回列表