找回密码

蓝光电影网

查看: 18|回复: 0

[剧情] 大教堂广场.Plaza.Catedral.2021.SPANISH.ENSUBBED.1080p.WEBRip.AAC2.0.x264-aTroCiTy 3.71GB

[复制链接]
蓝光币
1080
发表于 2023-1-12 18:06:15 | 显示全部楼层 |阅读模式


◎译  名 大教堂广场
◎片  名 Plaza Catedral
◎年  代 2021
◎产  地 巴拿马 / 哥伦比亚 / 墨西哥
◎类  别 剧情 / 惊悚
◎语  言 西班牙语
◎上映日期 2021-10-03(墨西哥)
◎IMDb链接 https://www.imdb.com/title/tt8657700/
◎豆瓣链接 https://movie.douban.com/subject/35417854/
◎片  长 94分钟
◎导  演 阿布内·贝内姆 Abner Benaim
◎编  剧 阿布内·贝内姆 Abner Benaim
◎演  员 马诺洛·卡多纳 Manolo Cardona
       伊尔丝·萨拉斯 Ilse Salas
◎简  介
  Alicia is a 42-year-old-woman whose grief has caused her estrangement from society. Her world is turned upside down when 14-year-old Chief, a young boy who looks after people’s cars, stumbles into her house bleeding
  1. Video
  2. ID                                       : 1
  3. Format                                   : AVC
  4. Format/Info                              : Advanced Video Codec
  5. Format profile                           : [email protected]
  6. Format settings                          : CABAC / 4 Ref Frames
  7. Format settings, CABAC                   : Yes
  8. Format settings, Reference frames        : 4 frames
  9. Codec ID                                 : V_MPEG4/ISO/AVC
  10. Duration                                 : 1 h 34 min
  11. Bit rate                                 : 5 500 kb/s
  12. Width                                    : 1 920 pixels
  13. Height                                   : 1 080 pixels
  14. Display aspect ratio                     : 16:9
  15. Frame rate mode                          : Constant
  16. Frame rate                               : 24.000 FPS
  17. Color space                              : YUV
  18. Chroma subsampling                       : 4:2:0
  19. Bit depth                                : 8 bits
  20. Scan type                                : Progressive
  21. Bits/(Pixel*Frame)                       : 0.111
  22. Stream size                              : 3.59 GiB (97%)
  23. Writing library                          : x264 core 155 r2917 0a84d98
  24. Encoding settings                        : cabac=1 / ref=3 / deblock=1:0:0 / analyse=0x3:0x113 / me=hex / subme=7 / psy=1 / psy_rd=1.00:0.00 / mixed_ref=1 / me_range=16 / chroma_me=1 / trellis=1 / 8x8dct=1 / cqm=0 / deadzone=21,11 / fast_pskip=1 / chroma_qp_offset=-2 / threads=4 / lookahead_threads=1 / sliced_threads=0 / nr=0 / decimate=1 / interlaced=0 / bluray_compat=0 / constrained_intra=0 / bframes=3 / b_pyramid=2 / b_adapt=2 / b_bias=0 / direct=1 / weightb=1 / open_gop=0 / weightp=2 / keyint=infinite / keyint_min=24 / scenecut=40 / intra_refresh=0 / rc_lookahead=40 / rc=2pass / mbtree=1 / bitrate=5500 / ratetol=1.0 / qcomp=0.60 / qpmin=0 / qpmax=69 / qpstep=4 / cplxblur=20.0 / qblur=0.5 / vbv_maxrate=6050 / vbv_bufsize=11000 / nal_hrd=none / filler=0 / ip_ratio=1.40 / aq=1:1.00
  25. Language                                 : English
  26. Default                                  : Yes
  27. Forced                                   : No
  28. Audio
  29. ID                                       : 2
  30. Format                                   : AAC LC
  31. Format/Info                              : Advanced Audio Codec Low Complexity
  32. Codec ID                                 : A_AAC-2
  33. Duration                                 : 1 h 34 min
  34. Bit rate                                 : 180 kb/s
  35. Channel(s)                               : 2 channels
  36. Channel layout                           : L R
  37. Sampling rate                            : 48.0 kHz
  38. Frame rate                               : 46.875 FPS (1024 SPF)
  39. Compression mode                         : Lossy
  40. Stream size                              : 121 MiB (3%)
  41. Language                                 : English
  42. Default                                  : Yes
  43. Forced                                   : No
  44. Text
  45. ID                                       : 3
  46. Format                                   : UTF-8
  47. Codec ID                                 : S_TEXT/UTF8
  48. Codec ID/Info                            : UTF-8 Plain Text
  49. Duration                                 : 1 h 31 min
  50. Bit rate                                 : 2 b/s
  51. Frame rate                               : 0.025 FPS
  52. Count of elements                        : 136
  53. Stream size                              : 1.99 KiB (0%)
  54. Language                                 : English
  55. Default                                  : Yes
  56. Forced                                   : No
复制代码











回复

使用道具 举报

懒得打字嘛,点击右侧快捷回复 【右侧内容,后台自定义】
您需要登录后才可以回帖 登录 | 立即加入

本版积分规则

Archiver|小黑屋| 蓝光电影网 |网站地图

Copyright © 2021 Comsenz Inc. Powered by 蓝光电影网

蓝光电影网

本站内容由用户自主分享和转载自互联网,转载目的在于传递更多信息,并不代表本网赞同其观点和对其真实性负责。

如有侵权、违反国家法律政策行为,请联系我们,我们会第一时间及时清除和处理!

举报反馈邮箱:[email protected]

快速回复 返回顶部 返回列表