找回密码

蓝光电影网

查看: 83|回复: 0

[剧情] 再造战士.Universal.Soldier.1992.iNTERNAL.1080p.BluRay.x264-PEGASUS 13.34GB

[复制链接]
蓝光币
1082
发表于 2023-1-13 16:03:46 | 显示全部楼层 |阅读模式


◎标  题 再造战士
◎译  名 魔鬼号令(台) / 宇宙战士
◎片  名 Universal Soldier
◎年  代 1992
◎产  地 美国
◎类  别 剧情 / 行动 / 科幻
◎语  言 英语
◎上映日期 1992-07-10
◎IMDb评分 6.1/10 (91160人评价)
◎IMDb链接 https://www.imdb.com/title/tt0105698/
◎豆瓣评分 6.7/10 (4545人评价)
◎豆瓣链接 https://movie.douban.com/subject/1298717/
◎片  长 102 分钟 / 84 分钟(德国)
◎导  演 罗兰·艾默里奇 Roland Emmerich
◎编  剧 迪安·德夫林 Dean Devlin
◎演  员 杜夫·龙格尔 Dolph Lundgren
       尚格·云顿 Jean-Claude Van Damme
       艾利·沃克 Ally Walker
       Walter Robles Walter Robles
       德鲁斯奈德 Drew Snyder
       史蒂芬·沃尔夫·史姑娘 Stephen Wolfe Smith
       Billy D. Lucas Billy D. Lucas
       乔安娜·巴隆 Joanne Baron
       Al Wyatt Jr. Al Wyatt Jr.
       坦纳·吉尔 Tanner Gill
       Eddie Braun Eddie Braun
       Joseph Malone Joseph Malone
       阿兰·格拉夫 Allan Graf
       莱昂·里皮 Leon Rippy
       小托马斯·罗萨莱斯 Thomas Rosales Jr.
       汤米·利斯特 Tom Lister Jr.
       兰斯·霍华德 Rance Howard
       耐德·巴拉米 Ned Bellamy
       Eric Norris Eric Norris
       迈克尔·加·怀特 Michael Jai White
       Robert Trebor Robert Trebor
       拉尔夫·莫勒 Ralf Moeller
       乔尔·克莱默 Joel Kramer
       杰里·奥尔巴赫 Jerry Orbach
       西蒙·瑞 Simon Rhee
       埃德·欧罗斯 Ed O'Ross
       露贝·安缇维洛 Lupe Ontiveros
       Leilani Jones Leilani Jones
       利利安·查维 Lilyan Chauvin
       乔治·费舍尔 George Fisher
       Shane Dixon Shane Dixon
       约翰·德米塔 John DeMita
       Jophery C. Brown Jophery C. Brown
       Michael Burnett Michael Burnett
◎简  介
    越战后,美国政府停止了一项绝密的科学计划。科学家们将越战中牺牲的兵士的尸身冰冻起来,植入电脑芯片,输入战争法式,讲他们革新成为新一代的战争机械人――“宇宙战士”,这些机械人没有感情和之前的记忆,只要冰冷的杀戮兵器。兵士卢克(尚格•云顿 Jean-Claude Van Damme 饰)和班长安德鲁(杜夫•朗格 Dolph Lundgren 饰)就是其中两员,他们被派往加入一场新的战争。战争中,两人的芯片忽然出错,令两人都规复了之前的记忆。                                                                      卢克记起越战昔时正是安德鲁忽然性情大变将部属和俘虏都杀光,误闯美军基地的女记者罗伯斯(艾丽•沃克 Ally Walker 饰)意外得悉了美军这一奥秘。原本罗伯斯难逃一死,关键时辰卢克救走了她。因而,美军派出一切的宇宙战士起头追杀二人。
  1. Video
  2. ID                                       : 1
  3. Format                                   : AVC
  4. Format/Info                              : Advanced Video Codec
  5. Format profile                           : [email protected]
  6. Format settings                          : CABAC / 5 Ref Frames
  7. Format settings, CABAC                   : Yes
  8. Format settings, Reference frames        : 5 frames
  9. Codec ID                                 : V_MPEG4/ISO/AVC
  10. Duration                                 : 1 h 43 min
  11. Bit rate                                 : 14.0 Mb/s
  12. Width                                    : 1 920 pixels
  13. Height                                   : 816 pixels
  14. Display aspect ratio                     : 2.35:1
  15. Frame rate mode                          : Constant
  16. Frame rate                               : 24.000 FPS
  17. Color space                              : YUV
  18. Chroma subsampling                       : 4:2:0
  19. Bit depth                                : 8 bits
  20. Scan type                                : Progressive
  21. Bits/(Pixel*Frame)                       : 0.372
  22. Stream size                              : 10.1 GiB (76%)
  23. Writing library                          : x264 core 164 r3103 941cae6
  24. Encoding settings                        : cabac=1 / ref=5 / deblock=1:-3:-3 / analyse=0x3:0x133 / me=umh / subme=11 / psy=1 / psy_rd=1.02:0.00 / mixed_ref=1 / me_range=32 / chroma_me=1 / trellis=2 / 8x8dct=1 / cqm=0 / deadzone=21,11 / fast_pskip=0 / chroma_qp_offset=-2 / threads=25 / lookahead_threads=6 / sliced_threads=0 / nr=0 / decimate=0 / interlaced=0 / bluray_compat=0 / constrained_intra=0 / bframes=16 / b_pyramid=2 / b_adapt=2 / b_bias=0 / direct=3 / weightb=1 / open_gop=0 / weightp=2 / keyint=250 / keyint_min=24 / scenecut=40 / intra_refresh=0 / rc_lookahead=250 / rc=crf / mbtree=0 / crf=19.5 / qcomp=0.60 / qpmin=0 / qpmax=69 / qpstep=4 / vbv_maxrate=62500 / vbv_bufsize=78125 / crf_max=0.0 / nal_hrd=none / filler=0 / ip_ratio=1.30 / pb_ratio=1.20 / aq=3:0.80
  25. Default                                  : Yes
  26. Forced                                   : No
  27. Color range                              : Limited
  28. Color primaries                          : BT.709
  29. Matrix coefficients                      : BT.709
  30. Audio #1
  31. ID                                       : 2
  32. Format                                   : DTS XLL
  33. Format/Info                              : Digital Theater Systems
  34. Commercial name                          : DTS-HD Master Audio
  35. Codec ID                                 : A_DTS
  36. Duration                                 : 1 h 43 min
  37. Bit rate mode                            : Variable
  38. Bit rate                                 : 4 287 kb/s
  39. Channel(s)                               : 6 channels
  40. Channel layout                           : C L R Ls Rs LFE
  41. Sampling rate                            : 48.0 kHz
  42. Frame rate                               : 93.750 FPS (512 SPF)
  43. Bit depth                                : 24 bits
  44. Compression mode                         : Lossless
  45. Stream size                              : 3.09 GiB (23%)
  46. Language                                 : English
  47. Default                                  : Yes
  48. Forced                                   : No
  49. Audio #2
  50. ID                                       : 3
  51. Format                                   : AAC LC
  52. Format/Info                              : Advanced Audio Codec Low Complexity
  53. Codec ID                                 : A_AAC-2
  54. Duration                                 : 1 h 43 min
  55. Bit rate                                 : 76.8 kb/s
  56. Channel(s)                               : 2 channels
  57. Channel layout                           : L R
  58. Sampling rate                            : 48.0 kHz
  59. Frame rate                               : 46.875 FPS (1024 SPF)
  60. Compression mode                         : Lossy
  61. Stream size                              : 56.8 MiB (0%)
  62. Title                                    : Commentary by director Roland Emmerich, producer Dean Devlin and actors Jean-Claude Van Damme and Dolph Lundgren
  63. Language                                 : English
  64. Default                                  : No
  65. Forced                                   : No
  66. Audio #3
  67. ID                                       : 4
  68. Format                                   : AAC LC
  69. Format/Info                              : Advanced Audio Codec Low Complexity
  70. Codec ID                                 : A_AAC-2
  71. Duration                                 : 1 h 43 min
  72. Bit rate                                 : 102 kb/s
  73. Channel(s)                               : 2 channels
  74. Channel layout                           : L R
  75. Sampling rate                            : 48.0 kHz
  76. Frame rate                               : 46.875 FPS (1024 SPF)
  77. Compression mode                         : Lossy
  78. Stream size                              : 75.8 MiB (1%)
  79. Title                                    : Commentary by by Roland Emmerich and Dean Devlin
  80. Language                                 : English
  81. Default                                  : No
  82. Forced                                   : No
  83. Text #1
  84. ID                                       : 5
  85. Format                                   : PGS
  86. Muxing mode                              : zlib
  87. Codec ID                                 : S_HDMV/PGS
  88. Codec ID/Info                            : Picture based subtitle format used on BDs/HD-DVDs
  89. Duration                                 : 1 h 37 min
  90. Bit rate                                 : 31.4 kb/s
  91. Count of elements                        : 2493
  92. Stream size                              : 21.8 MiB (0%)
  93. Language                                 : English
  94. Default                                  : No
  95. Forced                                   : No
  96. Text #2
  97. ID                                       : 6
  98. Format                                   : PGS
  99. Muxing mode                              : zlib
  100. Codec ID                                 : S_HDMV/PGS
  101. Codec ID/Info                            : Picture based subtitle format used on BDs/HD-DVDs
  102. Duration                                 : 1 h 36 min
  103. Bit rate                                 : 19.5 kb/s
  104. Count of elements                        : 2030
  105. Stream size                              : 13.4 MiB (0%)
  106. Language                                 : Spanish
  107. Default                                  : No
  108. Forced                                   : No
  109. Menu
  110. 00:00:00.000                             : :Chapter 01
  111. 00:10:27.500                             : :Chapter 02
  112. 00:20:51.833                             : :Chapter 03
  113. 00:31:24.750                             : :Chapter 04
  114. 00:42:41.333                             : :Chapter 05
  115. 00:53:13.833                             : :Chapter 06
  116. 01:04:07.500                             : :Chapter 07
  117. 01:14:22.667                             : :Chapter 08
  118. 01:21:53.333                             : :Chapter 09
  119. 01:31:32.875                             : :Chapter 10
复制代码









回复

使用道具 举报

懒得打字嘛,点击右侧快捷回复 【右侧内容,后台自定义】
您需要登录后才可以回帖 登录 | 立即加入

本版积分规则

Archiver|小黑屋| 蓝光电影网 |网站地图

Copyright © 2021 Comsenz Inc. Powered by 蓝光电影网

蓝光电影网

本站内容由用户自主分享和转载自互联网,转载目的在于传递更多信息,并不代表本网赞同其观点和对其真实性负责。

如有侵权、违反国家法律政策行为,请联系我们,我们会第一时间及时清除和处理!

举报反馈邮箱:[email protected]

快速回复 返回顶部 返回列表