找回密码

蓝光电影网

查看: 116|回复: 1

[剧情] 她在阳光下度过的岁月.She.Spent.So.Many.Hours.Under.the.Sun.Lamps.1985.FRENCH.1080p.BluRay.x264.FLAC.1.0-c0kE 14.02GB

[复制链接]
蓝光币
1082
发表于 2023-1-13 16:03:48 | 显示全部楼层 |阅读模式


◎标  题 她在阳光下度过的光阴
◎译  名 She Spent So Many Hours Under the Sun Lamps
◎片  名 Elle a passé tant d'heures sous les sunlights...
◎年  代 1985
◎产  地 法国
◎类  别 剧情 / 奇异
◎语  言 法语
◎上映日期 1985-10-09
◎IMDb评分 7/10 (258人评价)
◎IMDb链接 https://www.imdb.com/title/tt0089081/
◎豆瓣评分 8.3/10 (199人评价)
◎豆瓣链接 https://movie.douban.com/subject/1447038/
◎片  长 130 分钟
◎导  演 菲利普·加瑞尔 Philippe Garrel
◎编  剧 菲利普·加瑞尔 Philippe Garrel
◎演  员 米雷耶·佩里耶 Mireille Perrier
       贾克·鲍那非 Jacques Bonnaffé
       安妮·维亚泽姆斯基 Anne Wiazemsky
       洛乌·卡斯特尔 Lou Castel
       雅克·杜瓦隆 Jacques Doillon
       香特尔·阿克曼 Chantal Akerman
       菲利普·加瑞尔 Philippe Garrel
◎简  介
    出色的尝试影片。概况上影片起头是在报告一劈面临分手的年轻男女;渐渐地故工作节也四分五裂。很快,影片导演亲身站到摄影机前,故事成长为“片中片”;然后引入其他导演来拯救这部影片:香特尔·阿克曼与雅克·杜瓦隆。经过两小时的“雾里看花”观众自己会判定出究竟导演们能否成功“拯救”这部影片。
  1. Video
  2. ID                                       : 1
  3. Format                                   : AVC
  4. Format/Info                              : Advanced Video Codec
  5. Format profile                           : [email protected]
  6. Format settings                          : CABAC / 4 Ref Frames
  7. Format settings, CABAC                   : Yes
  8. Format settings, Reference frames        : 4 frames
  9. Codec ID                                 : V_MPEG4/ISO/AVC
  10. Duration                                 : 2 h 17 min
  11. Bit rate                                 : 14.2 Mb/s
  12. Width                                    : 1 800 pixels
  13. Height                                   : 1 080 pixels
  14. Display aspect ratio                     : 5:3
  15. Frame rate mode                          : Constant
  16. Frame rate                               : 24.000 FPS
  17. Color space                              : YUV
  18. Chroma subsampling                       : 4:2:0
  19. Bit depth                                : 8 bits
  20. Scan type                                : Progressive
  21. Bits/(Pixel*Frame)                       : 0.305
  22. Stream size                              : 13.7 GiB (98%)
  23. Title                                    : Elle a passé tant d\'heures sous les sunlights... (1985) | c0kE
  24. Writing library                          : x264 core 164 r3100+49 ee821bd devel [(8 & 10)[email protected] X86_64]
  25. Encoding settings                        : cabac=1 / ref=4 / deblock=1:-3:-3 / analyse=0x3:0x133 / me=umh / subme=10 / psy=1 / fade_compensate=0.00 / psy_rd=1.00:0.00 / mixed_ref=1 / me_range=32 / chroma_me=1 / trellis=2 / 8x8dct=1 / cqm=0 / deadzone=21,11 / fast_pskip=0 / chroma_qp_offset=-2 / threads=12 / lookahead_threads=3 / sliced_threads=0 / nr=0 / decimate=0 / interlaced=0 / bluray_compat=0 / constrained_intra=0 / fgo=0 / bframes=16 / b_pyramid=2 / b_adapt=2 / b_bias=0 / direct=3 / weightb=1 / open_gop=0 / weightp=2 / keyint=250 / keyint_min=24 / scenecut=40 / intra_refresh=0 / rc_lookahead=60 / rc=crf / mbtree=0 / crf=20.0000 / qcomp=0.60 / qpmin=0:0:0 / qpmax=69:69:69 / qpstep=4 / vbv_maxrate=62500 / vbv_bufsize=78125 / crf_max=0.0 / nal_hrd=none / filler=0 / ip_ratio=1.40 / pb_ratio=1.30 / aq=3:0.70 / aq-sensitivity=10.00 / aq-factor=1.00:1.00:1.00 / aq2=0 / aq3=0
  26. Language                                 : French
  27. Default                                  : Yes
  28. Forced                                   : No
  29. Color range                              : Limited
  30. Color primaries                          : BT.709
  31. Matrix coefficients                      : BT.709
  32. Audio
  33. ID                                       : 2
  34. Format                                   : FLAC
  35. Format/Info                              : Free Lossless Audio Codec
  36. Codec ID                                 : A_FLAC
  37. Duration                                 : 2 h 17 min
  38. Bit rate mode                            : Variable
  39. Bit rate                                 : 309 kb/s
  40. Channel(s)                               : 1 channel
  41. Channel layout                           : C
  42. Sampling rate                            : 48.0 kHz
  43. Frame rate                               : 11.719 FPS (4096 SPF)
  44. Bit depth                                : 16 bits
  45. Compression mode                         : Lossless
  46. Stream size                              : 305 MiB (2%)
  47. Writing library                          : libFLAC 1.4.1 (UTC 2022-09-22)
  48. Language                                 : French
  49. Default                                  : Yes
  50. Forced                                   : No
  51. MD5 of the unencoded content             : F3E4F28CC4E14412B958CE05BB889D67
  52. Text
  53. ID                                       : 3
  54. Format                                   : UTF-8
  55. Codec ID                                 : S_TEXT/UTF8
  56. Codec ID/Info                            : UTF-8 Plain Text
  57. Duration                                 : 2 h 17 min
  58. Bit rate                                 : 25 b/s
  59. Frame rate                               : 0.078 FPS
  60. Count of elements                        : 646
  61. Stream size                              : 26.1 KiB (0%)
  62. Language                                 : English
  63. Default                                  : Yes
  64. Forced                                   : No
  65. Menu
  66. 00:00:00.000                             : en:Chapter 01
  67. 00:08:25.375                             : en:Chapter 02
  68. 00:18:39.042                             : en:Chapter 03
  69. 00:28:09.583                             : en:Chapter 04
  70. 00:36:08.542                             : en:Chapter 05
  71. 00:47:23.667                             : en:Chapter 06
  72. 00:59:49.292                             : en:Chapter 07
  73. 01:10:33.167                             : en:Chapter 08
  74. 01:26:54.583                             : en:Chapter 09
  75. 01:41:36.500                             : en:Chapter 10
  76. 02:03:02.042                             : en:Chapter 11
  77. 02:14:05.750                             : en:Chapter 12
复制代码











回复

使用道具 举报

蓝光币
194
发表于 2023-1-13 17:58:24 | 显示全部楼层
感谢楼主,再发精品
回复 支持 反对

使用道具 举报

懒得打字嘛,点击右侧快捷回复 【右侧内容,后台自定义】
您需要登录后才可以回帖 登录 | 立即加入

本版积分规则

Archiver|小黑屋| 蓝光电影网 |网站地图

Copyright © 2021 Comsenz Inc. Powered by 蓝光电影网

蓝光电影网

本站内容由用户自主分享和转载自互联网,转载目的在于传递更多信息,并不代表本网赞同其观点和对其真实性负责。

如有侵权、违反国家法律政策行为,请联系我们,我们会第一时间及时清除和处理!

举报反馈邮箱:[email protected]

快速回复 返回顶部 返回列表