找回密码

蓝光电影网

查看: 43|回复: 1

[剧情] 双重危机.Double.Jeopardy.1999.720p.BluRay.x264-OLDTiME 4.91GB

[复制链接]
蓝光币
1084
发表于 2023-1-14 14:03:58 | 显示全部楼层 |阅读模式


◎标  题 两重危机
◎译  名 致命追缉令 / 亡命追凶 / 两重诡计 / 两重特务
◎片  名 Double Jeopardy
◎年  代 1999
◎产  地 美国 / 德国 / 加拿大
◎类  别 剧情 / 悬疑 / 惊悚 / 犯罪
◎语  言 英语
◎上映日期 1999-09-21
◎IMDb评分 6.5/10 (88599人评价)
◎IMDb链接 https://www.imdb.com/title/tt0150377/
◎豆瓣评分 7.2/10 (7600人评价)
◎豆瓣链接 https://movie.douban.com/subject/1292676/
◎片  长 105分钟
◎导  演 布鲁斯·贝尔斯福德 Bruce Beresford
◎编  剧 大卫·韦斯伯格 David Weisberg
       道格拉斯·库克 Douglas Cook
       张策 Ce Zhang
◎演  员 汤米·李·琼斯 Tommy Lee Jones
       艾什莉·贾德 Ashley Judd
       杰伊·布拉泽奥 Jay Brazeau
       布鲁斯·格林伍德 Bruce Greenwood
       约翰·麦克拉伦 John Maclaren
       安娜贝丝·吉什 Annabeth Gish
       布伦南·埃利奥特 Brennan Elliott
       迈克尔·加斯顿 Michael Gaston
       吉莲·芭伯 Gillian Barber
       David Jacox David Jacox
       贝齐·布兰特利 Betsy Brantley
       罗马·玛菲娅 Roma Maffia
       达文尼亚·麦克法登 Davenia McFadden
       加布里埃尔·罗斯 Gabrielle Rose
       丹尼尔·莱派恩 Daniel Lapaine
       玛丽亚·埃雷拉 Maria Herrera
       巴布斯丘拉 Babs Chula
       恩卡·奥库玛 Enuka Okuma
       David Fredericks David Fredericks
       安娜·哈根 Anna Hagan
       富尔·切切里 Fulvio Cecere
       特雷西·维拉尔 Tracy Vilar
       Addison Ridge Addison Ridge
       因格里德·托伦斯 Ingrid Torrance
       罗杰·R.克劳斯 Roger R. Cross
       基冈·康纳·特雷西 Keegan Connor Tracy
       Dave Hager Dave Hager
       Austin B. Church Austin B. Church
       米凯尔·珊农·詹金斯 Mykel Shannon Jenkins
       Michelle Stafford Michelle Stafford
       Lance Spellerberg Lance Spellerberg
       乔治·牟利亚托斯 George Touliatos
       Brent Woolsey Brent Woolsey
       斯宾塞·崔特·克拉克 Spencer Treat Clark
       Tamer Riad Tamer Riad
       Nicolas Roye Nicolas Roye
◎简  介
    莉比(艾什莉·贾德 Ashley Judd 饰)和丈夫尼克(布鲁斯·格林伍德 Bruce Greenwood 饰)之间的豪情非常要好,两人配合哺育灵巧心爱的儿子马蒂(本杰明·韦弗 Benjamin Weaver 饰),幸运生活可谓典型。可是,在忽然之间,尼克奥秘失落留下大量血迹,莉比则沦为嫌犯终极锒铛入狱。莉比将马蒂拜托给了好友安吉(安娜贝丝·吉什 Annabeth Gish 饰),自己则在狱友玛格丽特(罗马·玛菲娅 Roma Maffia 饰)和伊芙琳(达文尼亚·麦克法登 Davenia McFadden 饰)的帮助下为了洗清罪名而做着不竭的尽力。                                                                      一晃眼六年曩昔,塔维斯警官(汤米·李·琼斯 Tommy Lee Jones 饰)成为了获得了假释的莉比的监护人,而此时的莉比发现,尼克不但没有灭亡,甚至改头换面带着儿子和安吉过着抛头露面的生活。履历了两重变节的莉比决议还击,而尼克也绝不会束手待毙,一场布满了诡计与危险的恶战行将拉开帷幕。
  1. Video
  2. ID                                       : 1
  3. Format                                   : AVC
  4. Format/Info                              : Advanced Video Codec
  5. Format profile                           : [email protected]
  6. Format settings                          : CABAC / 8 Ref Frames
  7. Format settings, CABAC                   : Yes
  8. Format settings, Reference frames        : 8 frames
  9. Codec ID                                 : V_MPEG4/ISO/AVC
  10. Duration                                 : 1 h 45 min
  11. Bit rate                                 : 5 814 kb/s
  12. Width                                    : 1 280 pixels
  13. Height                                   : 534 pixels
  14. Display aspect ratio                     : 2.40:1
  15. Frame rate mode                          : Constant
  16. Frame rate                               : 23.976 (24000/1001) FPS
  17. Color space                              : YUV
  18. Chroma subsampling                       : 4:2:0
  19. Bit depth                                : 8 bits
  20. Scan type                                : Progressive
  21. Bits/(Pixel*Frame)                       : 0.355
  22. Stream size                              : 4.27 GiB (87%)
  23. Writing library                          : x264 core 164 r3101 b093bbe
  24. Encoding settings                        : cabac=1 / ref=8 / deblock=1:-3:-3 / analyse=0x3:0x133 / me=umh / subme=9 / psy=1 / psy_rd=1.00:0.00 / mixed_ref=1 / me_range=16 / chroma_me=1 / trellis=2 / 8x8dct=1 / cqm=0 / deadzone=21,11 / fast_pskip=0 / chroma_qp_offset=-2 / threads=17 / lookahead_threads=1 / sliced_threads=0 / nr=0 / decimate=1 / interlaced=0 / bluray_compat=0 / constrained_intra=0 / bframes=3 / b_pyramid=2 / b_adapt=2 / b_bias=0 / direct=3 / weightb=1 / open_gop=0 / weightp=2 / keyint=250 / keyint_min=23 / scenecut=40 / intra_refresh=0 / rc_lookahead=60 / rc=crf / mbtree=1 / crf=17.0 / qcomp=0.60 / qpmin=0 / qpmax=69 / qpstep=4 / ip_ratio=1.40 / aq=1:1.00
  25. Language                                 : English
  26. Default                                  : Yes
  27. Forced                                   : No
  28. Audio #1
  29. ID                                       : 2
  30. Format                                   : AC-3
  31. Format/Info                              : Audio Coding 3
  32. Commercial name                          : Dolby Digital
  33. Codec ID                                 : A_AC3
  34. Duration                                 : 1 h 45 min
  35. Bit rate mode                            : Constant
  36. Bit rate                                 : 640 kb/s
  37. Channel(s)                               : 6 channels
  38. Channel layout                           : L R C LFE Ls Rs
  39. Sampling rate                            : 48.0 kHz
  40. Frame rate                               : 31.250 FPS (1536 SPF)
  41. Compression mode                         : Lossy
  42. Stream size                              : 482 MiB (10%)
  43. Language                                 : English
  44. Service kind                             : Complete Main
  45. Default                                  : Yes
  46. Forced                                   : No
  47. Audio #2
  48. ID                                       : 3
  49. Format                                   : AAC LC
  50. Format/Info                              : Advanced Audio Codec Low Complexity
  51. Codec ID                                 : A_AAC-2
  52. Duration                                 : 1 h 45 min
  53. Bit rate                                 : 123 kb/s
  54. Channel(s)                               : 2 channels
  55. Channel layout                           : L R
  56. Sampling rate                            : 48.0 kHz
  57. Frame rate                               : 46.875 FPS (1024 SPF)
  58. Compression mode                         : Lossy
  59. Delay relative to video                  : 9 ms
  60. Stream size                              : 92.3 MiB (2%)
  61. Title                                    : commentary
  62. Language                                 : English
  63. Default                                  : No
  64. Forced                                   : No
  65. Text #1
  66. ID                                       : 4
  67. ID in the original source medium         : 4608 (0x1200)
  68. Format                                   : PGS
  69. Muxing mode                              : zlib
  70. Codec ID                                 : S_HDMV/PGS
  71. Codec ID/Info                            : Picture based subtitle format used on BDs/HD-DVDs
  72. Duration                                 : 1 h 38 min
  73. Bit rate                                 : 37.0 kb/s
  74. Count of elements                        : 2276
  75. Stream size                              : 26.1 MiB (1%)
  76. Language                                 : English
  77. Default                                  : No
  78. Forced                                   : No
  79. Original source medium                   : Blu-ray
  80. Text #2
  81. ID                                       : 5
  82. ID in the original source medium         : 4609 (0x1201)
  83. Format                                   : PGS
  84. Muxing mode                              : zlib
  85. Codec ID                                 : S_HDMV/PGS
  86. Codec ID/Info                            : Picture based subtitle format used on BDs/HD-DVDs
  87. Duration                                 : 1 h 38 min
  88. Bit rate                                 : 43.8 kb/s
  89. Count of elements                        : 2796
  90. Stream size                              : 31.0 MiB (1%)
  91. Language                                 : English
  92. Default                                  : No
  93. Forced                                   : No
  94. Original source medium                   : Blu-ray
  95. Text #3
  96. ID                                       : 6
  97. ID in the original source medium         : 4610 (0x1202)
  98. Format                                   : PGS
  99. Muxing mode                              : zlib
  100. Codec ID                                 : S_HDMV/PGS
  101. Codec ID/Info                            : Picture based subtitle format used on BDs/HD-DVDs
  102. Duration                                 : 1 h 38 min
  103. Bit rate                                 : 29.2 kb/s
  104. Count of elements                        : 1604
  105. Stream size                              : 20.6 MiB (0%)
  106. Language                                 : German
  107. Default                                  : No
  108. Forced                                   : No
  109. Original source medium                   : Blu-ray
  110. Text #4
  111. ID                                       : 7
  112. ID in the original source medium         : 4611 (0x1203)
  113. Format                                   : PGS
  114. Muxing mode                              : zlib
  115. Codec ID                                 : S_HDMV/PGS
  116. Codec ID/Info                            : Picture based subtitle format used on BDs/HD-DVDs
  117. Duration                                 : 1 h 38 min
  118. Bit rate                                 : 25.7 kb/s
  119. Count of elements                        : 1588
  120. Stream size                              : 18.1 MiB (0%)
  121. Language                                 : Spanish
  122. Default                                  : No
  123. Forced                                   : No
  124. Original source medium                   : Blu-ray
  125. Text #5
  126. ID                                       : 8
  127. ID in the original source medium         : 4612 (0x1204)
  128. Format                                   : PGS
  129. Muxing mode                              : zlib
  130. Codec ID                                 : S_HDMV/PGS
  131. Codec ID/Info                            : Picture based subtitle format used on BDs/HD-DVDs
  132. Duration                                 : 1 h 38 min
  133. Bit rate                                 : 26.3 kb/s
  134. Count of elements                        : 1686
  135. Stream size                              : 18.6 MiB (0%)
  136. Language                                 : French
  137. Default                                  : No
  138. Forced                                   : No
  139. Original source medium                   : Blu-ray
  140. Text #6
  141. ID                                       : 9
  142. ID in the original source medium         : 4613 (0x1205)
  143. Format                                   : PGS
  144. Muxing mode                              : zlib
  145. Codec ID                                 : S_HDMV/PGS
  146. Codec ID/Info                            : Picture based subtitle format used on BDs/HD-DVDs
  147. Duration                                 : 1 h 43 min
  148. Bit rate                                 : 31.7 kb/s
  149. Count of elements                        : 2152
  150. Stream size                              : 23.5 MiB (0%)
  151. Language                                 : Italian
  152. Default                                  : No
  153. Forced                                   : No
  154. Original source medium                   : Blu-ray
  155. Text #7
  156. ID                                       : 10
  157. ID in the original source medium         : 4614 (0x1206)
  158. Format                                   : PGS
  159. Muxing mode                              : zlib
  160. Codec ID                                 : S_HDMV/PGS
  161. Codec ID/Info                            : Picture based subtitle format used on BDs/HD-DVDs
  162. Duration                                 : 1 h 38 min
  163. Bit rate                                 : 21.0 kb/s
  164. Count of elements                        : 1906
  165. Stream size                              : 14.8 MiB (0%)
  166. Language                                 : Japanese
  167. Default                                  : No
  168. Forced                                   : No
  169. Original source medium                   : Blu-ray
  170. Text #8
  171. ID                                       : 11
  172. ID in the original source medium         : 4615 (0x1207)
  173. Format                                   : PGS
  174. Muxing mode                              : zlib
  175. Codec ID                                 : S_HDMV/PGS
  176. Codec ID/Info                            : Picture based subtitle format used on BDs/HD-DVDs
  177. Duration                                 : 1 h 36 min
  178. Bit rate                                 : 339 b/s
  179. Count of elements                        : 18
  180. Stream size                              : 240 KiB (0%)
  181. Language                                 : German
  182. Default                                  : No
  183. Forced                                   : No
  184. Original source medium                   : Blu-ray
  185. Text #9
  186. ID                                       : 12
  187. ID in the original source medium         : 4616 (0x1208)
  188. Format                                   : PGS
  189. Muxing mode                              : zlib
  190. Codec ID                                 : S_HDMV/PGS
  191. Codec ID/Info                            : Picture based subtitle format used on BDs/HD-DVDs
  192. Duration                                 : 1 h 6 min
  193. Bit rate                                 : 308 b/s
  194. Count of elements                        : 16
  195. Stream size                              : 149 KiB (0%)
  196. Language                                 : French
  197. Default                                  : No
  198. Forced                                   : No
  199. Original source medium                   : Blu-ray
  200. Text #10
  201. ID                                       : 13
  202. ID in the original source medium         : 4617 (0x1209)
  203. Format                                   : PGS
  204. Muxing mode                              : zlib
  205. Codec ID                                 : S_HDMV/PGS
  206. Codec ID/Info                            : Picture based subtitle format used on BDs/HD-DVDs
  207. Duration                                 : 1 h 6 min
  208. Bit rate                                 : 605 b/s
  209. Count of elements                        : 30
  210. Stream size                              : 293 KiB (0%)
  211. Language                                 : Japanese
  212. Default                                  : No
  213. Forced                                   : No
  214. Original source medium                   : Blu-ray
  215. Menu
  216. 00:00:00.000                             : en:Chapter 01
  217. 00:06:32.475                             : en:Chapter 02
  218. 00:13:26.847                             : en:Chapter 03
  219. 00:20:51.625                             : en:Chapter 04
  220. 00:27:37.280                             : en:Chapter 05
  221. 00:32:31.991                             : en:Chapter 06
  222. 00:40:25.798                             : en:Chapter 07
  223. 00:46:15.773                             : en:Chapter 08
  224. 00:52:40.407                             : en:Chapter 09
  225. 00:58:47.398                             : en:Chapter 10
  226. 01:06:20.559                             : en:Chapter 11
  227. 01:15:24.186                             : en:Chapter 12
  228. 01:21:18.373                             : en:Chapter 13
  229. 01:29:09.844                             : en:Chapter 14
  230. 01:36:22.818                             : en:Chapter 15
  231. 01:40:33.444                             : en:Chapter 16
复制代码









回复

使用道具 举报

蓝光币
524
发表于 2023-1-14 18:52:04 | 显示全部楼层
不错不错!!!
回复

使用道具 举报

懒得打字嘛,点击右侧快捷回复 【右侧内容,后台自定义】
您需要登录后才可以回帖 登录 | 立即加入

本版积分规则

Archiver|小黑屋| 蓝光电影网 |网站地图

Copyright © 2021 Comsenz Inc. Powered by 蓝光电影网

蓝光电影网

本站内容由用户自主分享和转载自互联网,转载目的在于传递更多信息,并不代表本网赞同其观点和对其真实性负责。

如有侵权、违反国家法律政策行为,请联系我们,我们会第一时间及时清除和处理!

举报反馈邮箱:[email protected]

快速回复 返回顶部 返回列表