找回密码

蓝光电影网

查看: 35|回复: 0

[2160p-WEB] 大病.Sick.2022.2160p.PCOK.WEB-DL.DDP5.1.DV.MKV.x265-FLUX 8.86GB

[复制链接]
蓝光币
1080
发表于 2023-1-14 14:12:47 | 显示全部楼层 |阅读模式


◎标  题 大病
◎片  名 Sick
◎年  代 2022
◎产  地 美国
◎类  别 惊悚
◎语  言 英语
◎上映日期 2022-09-10(多伦多电影节) / 2023-01-13(美国)
◎IMDb评分 6.8/10 (99人评价)
◎IMDb链接 https://www.imdb.com/title/tt14642626/
◎豆瓣链接 https://movie.douban.com/subject/35774712/
◎片  长 83分钟
◎导  演 约翰·海姆斯 John Hyams
◎编  剧 凯文·威廉姆森 Kevin Williamson
◎演  员 马克·门查卡 Marc Menchaca
       迪伦·斯派比利 Dylan Sprayberry
       简·亚当斯 Jane Adams
◎简  介
    Due to the pandemic, Parker and her best friend decide to quarantine at the family lake house alone - or so they think.
  1. Video
  2. ID                                       : 1
  3. Format                                   : HEVC
  4. Format/Info                              : High Efficiency Video Coding
  5. Format profile                           : Main [email protected]@Main
  6. HDR format                               : Dolby Vision, Version 1.0, dvhe.05.06, BL+RPU
  7. Codec ID                                 : V_MPEGH/ISO/HEVC
  8. Duration                                 : 1 h 23 min
  9. Bit rate                                 : 15.1 Mb/s
  10. Width                                    : 3 840 pixels
  11. Height                                   : 2 160 pixels
  12. Display aspect ratio                     : 16:9
  13. Frame rate mode                          : Constant
  14. Frame rate                               : 23.976 (24000/1001) FPS
  15. Color space                              : YUV
  16. Chroma subsampling                       : 4:2:0 (Type 0)
  17. Bit depth                                : 10 bits
  18. Bits/(Pixel*Frame)                       : 0.076
  19. Stream size                              : 8.75 GiB (99%)
  20. Language                                 : English
  21. Default                                  : Yes
  22. Forced                                   : No
  23. Color range                              : Full
  24. Audio
  25. ID                                       : 2
  26. Format                                   : E-AC-3
  27. Format/Info                              : Enhanced AC-3
  28. Commercial name                          : Dolby Digital Plus
  29. Codec ID                                 : A_EAC3
  30. Duration                                 : 1 h 23 min
  31. Bit rate mode                            : Constant
  32. Bit rate                                 : 192 kb/s
  33. Channel(s)                               : 6 channels
  34. Channel layout                           : L R C LFE Ls Rs
  35. Sampling rate                            : 48.0 kHz
  36. Frame rate                               : 31.250 FPS (1536 SPF)
  37. Compression mode                         : Lossy
  38. Stream size                              : 114 MiB (1%)
  39. Language                                 : English
  40. Service kind                             : Complete Main
  41. Default                                  : Yes
  42. Forced                                   : No
  43. Text #1
  44. ID                                       : 3
  45. Format                                   : UTF-8
  46. Codec ID                                 : S_TEXT/UTF8
  47. Codec ID/Info                            : UTF-8 Plain Text
  48. Duration                                 : 1 h 14 min
  49. Bit rate                                 : 28 b/s
  50. Frame rate                               : 0.129 FPS
  51. Count of elements                        : 579
  52. Stream size                              : 15.6 KiB (0%)
  53. Language                                 : English
  54. Default                                  : No
  55. Forced                                   : No
  56. Text #2
  57. ID                                       : 4
  58. Format                                   : UTF-8
  59. Codec ID                                 : S_TEXT/UTF8
  60. Codec ID/Info                            : UTF-8 Plain Text
  61. Duration                                 : 1 h 22 min
  62. Bit rate                                 : 34 b/s
  63. Frame rate                               : 0.187 FPS
  64. Count of elements                        : 922
  65. Stream size                              : 20.7 KiB (0%)
  66. Title                                    : SDH
  67. Language                                 : English
  68. Default                                  : No
  69. Forced                                   : No
  70. Text #3
  71. ID                                       : 5
  72. Format                                   : UTF-8
  73. Codec ID                                 : S_TEXT/UTF8
  74. Codec ID/Info                            : UTF-8 Plain Text
  75. Duration                                 : 1 h 22 min
  76. Bit rate                                 : 41 b/s
  77. Frame rate                               : 0.197 FPS
  78. Count of elements                        : 970
  79. Stream size                              : 24.9 KiB (0%)
  80. Language                                 : Spanish
  81. Default                                  : No
  82. Forced                                   : No
复制代码











回复

使用道具 举报

懒得打字嘛,点击右侧快捷回复 【右侧内容,后台自定义】
您需要登录后才可以回帖 登录 | 立即加入

本版积分规则

Archiver|小黑屋| 蓝光电影网 |网站地图

Copyright © 2021 Comsenz Inc. Powered by 蓝光电影网

蓝光电影网

本站内容由用户自主分享和转载自互联网,转载目的在于传递更多信息,并不代表本网赞同其观点和对其真实性负责。

如有侵权、违反国家法律政策行为,请联系我们,我们会第一时间及时清除和处理!

举报反馈邮箱:[email protected]

快速回复 返回顶部 返回列表