找回密码

蓝光电影网

查看: 1864|回复: 38

[2160p-WEB] 解禁男女[中文字幕].Love.and.Leashes.2022.KOREAN.2160p.NF.WEB-DL.x265.10bit.SDR.DDP5.1.Atmos-XEBEC 10.30GB

[复制链接]
蓝光币
1084
发表于 2023-1-19 14:09:33 | 显示全部楼层 |阅读模式


◎标  题 解禁男女
◎译  名 道德感 / Moral Sense / Love and Leashes
◎片  名 모럴 센스
◎年  代 2022
◎产  地 韩国
◎类  别 笑剧 / 恋爱
◎语  言 韩语
◎上映日期 2022-02-11(韩国收集)
◎IMDb评分 6.3/10 (5048人评价)
◎IMDb链接 https://www.imdb.com/title/tt15553956/
◎豆瓣评分 6.6/10 (34489人评价)
◎豆瓣链接 https://movie.douban.com/subject/35241052/
◎片  长 118分钟
◎导  演 朴贤真 Hyeon-jin Park
◎编  剧 朴贤真 Hyeon-jin Park
◎演  员 徐贤 Seohyun
       李濬荣 Joon-young Lee
       李艾 Elle Lee
       徐现宇 Seo Hyeon-woo
       白贤珠 Hyunjoo Baek
       金汉娜 Han-na Kim
       安承钧 Seung-gyun An
       金宝罗 Bora Kim
       李世亨 Lee Suk Hyeong
       冯翠杏 Nicole Fong
       达伦·凯兰 Darren Keilan
       哈里森·徐 Harrison Xu
◎简  介
    郑智厚(李浚荣 饰)是刚刚专职到公关部的代理,偶合的是,在公关部有一个名叫郑智宥(徐珠贤 饰)的职员,两人的名字居然意外的类似。由于名字类似,某日,郑智宥误收了寄给郑智厚的包裹,翻开以后震动的发现里面居然是一条情味狗链,不外,这两人的关系由于这场社死而意外的变得密切起来,郑智宥对于郑智厚起头有了别样的感受。                                                                      一天,郑智厚向郑智宥提出了请求,希望她可以成为自己的仆人,出于对对方的豪情,郑智宥答应了这个请求,而且起头了对于BDSM范畴的摸索,两人定下了为期三个月的契约,在这三个月里,郑智宥将每周对郑智厚停止一次调教活动。
  1. Video
  2. ID                                       : 1
  3. Format                                   : HEVC
  4. Format/Info                              : High Efficiency Video Coding
  5. Format profile                           : Main [email protected]@Main
  6. Codec ID                                 : V_MPEGH/ISO/HEVC
  7. Duration                                 : 1 h 58 min
  8. Bit rate                                 : 11.7 Mb/s
  9. Width                                    : 3 840 pixels
  10. Height                                   : 2 160 pixels
  11. Display aspect ratio                     : 16:9
  12. Frame rate mode                          : Constant
  13. Frame rate                               : 23.976 (24000/1001) FPS
  14. Color space                              : YUV
  15. Chroma subsampling                       : 4:2:0
  16. Bit depth                                : 10 bits
  17. Bits/(Pixel*Frame)                       : 0.059
  18. Stream size                              : 9.65 GiB (94%)
  19. Default                                  : Yes
  20. Forced                                   : No
  21. Color range                              : Limited
  22. Color primaries                          : BT.709
  23. Transfer characteristics                 : BT.709
  24. Matrix coefficients                      : BT.709
  25. Audio
  26. ID                                       : 2
  27. Format                                   : E-AC-3 JOC
  28. Format/Info                              : Enhanced AC-3 with Joint Object Coding
  29. Commercial name                          : Dolby Digital Plus with Dolby Atmos
  30. Codec ID                                 : A_EAC3
  31. Duration                                 : 1 h 58 min
  32. Bit rate mode                            : Constant
  33. Bit rate                                 : 768 kb/s
  34. Channel(s)                               : 6 channels
  35. Channel layout                           : L R C LFE Ls Rs
  36. Sampling rate                            : 48.0 kHz
  37. Frame rate                               : 31.250 FPS (1536 SPF)
  38. Compression mode                         : Lossy
  39. Stream size                              : 652 MiB (6%)
  40. Title                                    : Korean
  41. Language                                 : Korean
  42. Service kind                             : Complete Main
  43. Default                                  : Yes
  44. Forced                                   : No
  45. Complexity index                         : 16
  46. Number of dynamic objects                : 15
  47. Bed channel count                        : 1 channel
  48. Bed channel configuration                : LFE
  49. Text #1
  50. ID                                       : 3
  51. Format                                   : UTF-8
  52. Codec ID                                 : S_TEXT/UTF8
  53. Codec ID/Info                            : UTF-8 Plain Text
  54. Duration                                 : 1 h 56 min
  55. Bit rate                                 : 0 b/s
  56. Frame rate                               : 0.005 FPS
  57. Count of elements                        : 33
  58. Stream size                              : 837 Bytes (0%)
  59. Title                                    : German (Forced)
  60. Language                                 : German
  61. Default                                  : No
  62. Forced                                   : Yes
  63. Text #2
  64. ID                                       : 4
  65. Format                                   : UTF-8
  66. Codec ID                                 : S_TEXT/UTF8
  67. Codec ID/Info                            : UTF-8 Plain Text
  68. Duration                                 : 1 h 41 min
  69. Bit rate                                 : 0 b/s
  70. Frame rate                               : 0.005 FPS
  71. Count of elements                        : 28
  72. Stream size                              : 732 Bytes (0%)
  73. Title                                    : English (Forced)
  74. Language                                 : English
  75. Default                                  : No
  76. Forced                                   : Yes
  77. Text #3
  78. ID                                       : 5
  79. Format                                   : UTF-8
  80. Codec ID                                 : S_TEXT/UTF8
  81. Codec ID/Info                            : UTF-8 Plain Text
  82. Duration                                 : 1 h 56 min
  83. Bit rate                                 : 0 b/s
  84. Frame rate                               : 0.005 FPS
  85. Count of elements                        : 34
  86. Stream size                              : 875 Bytes (0%)
  87. Title                                    : Spanish (Forced)
  88. Language                                 : Spanish
  89. Default                                  : No
  90. Forced                                   : Yes
  91. Text #4
  92. ID                                       : 6
  93. Format                                   : UTF-8
  94. Codec ID                                 : S_TEXT/UTF8
  95. Codec ID/Info                            : UTF-8 Plain Text
  96. Duration                                 : 1 h 56 min
  97. Bit rate                                 : 1 b/s
  98. Frame rate                               : 0.006 FPS
  99. Count of elements                        : 42
  100. Stream size                              : 987 Bytes (0%)
  101. Title                                    : Spanish (Forced)
  102. Language                                 : Spanish
  103. Default                                  : No
  104. Forced                                   : Yes
  105. Text #5
  106. ID                                       : 7
  107. Format                                   : UTF-8
  108. Codec ID                                 : S_TEXT/UTF8
  109. Codec ID/Info                            : UTF-8 Plain Text
  110. Duration                                 : 1 h 56 min
  111. Bit rate                                 : 0 b/s
  112. Frame rate                               : 0.005 FPS
  113. Count of elements                        : 36
  114. Stream size                              : 826 Bytes (0%)
  115. Title                                    : French (Forced)
  116. Language                                 : French
  117. Default                                  : No
  118. Forced                                   : Yes
  119. Text #6
  120. ID                                       : 8
  121. Format                                   : UTF-8
  122. Codec ID                                 : S_TEXT/UTF8
  123. Codec ID/Info                            : UTF-8 Plain Text
  124. Duration                                 : 1 h 56 min
  125. Bit rate                                 : 1 b/s
  126. Frame rate                               : 0.008 FPS
  127. Count of elements                        : 54
  128. Stream size                              : 1.49 KiB (0%)
  129. Title                                    : Latin, Hindi (Forced)
  130. Language                                 : Hindi
  131. Default                                  : No
  132. Forced                                   : Yes
  133. Text #7
  134. ID                                       : 9
  135. Format                                   : UTF-8
  136. Codec ID                                 : S_TEXT/UTF8
  137. Codec ID/Info                            : UTF-8 Plain Text
  138. Duration                                 : 1 h 56 min
  139. Bit rate                                 : 0 b/s
  140. Frame rate                               : 0.005 FPS
  141. Count of elements                        : 38
  142. Stream size                              : 865 Bytes (0%)
  143. Title                                    : Indonesian (Forced)
  144. Language                                 : Indonesian
  145. Default                                  : No
  146. Forced                                   : Yes
  147. Text #8
  148. ID                                       : 10
  149. Format                                   : UTF-8
  150. Codec ID                                 : S_TEXT/UTF8
  151. Codec ID/Info                            : UTF-8 Plain Text
  152. Duration                                 : 1 h 56 min
  153. Bit rate                                 : 1 b/s
  154. Frame rate                               : 0.006 FPS
  155. Count of elements                        : 39
  156. Stream size                              : 953 Bytes (0%)
  157. Title                                    : Italian (Forced)
  158. Language                                 : Italian
  159. Default                                  : No
  160. Forced                                   : Yes
  161. Text #9
  162. ID                                       : 11
  163. Format                                   : UTF-8
  164. Codec ID                                 : S_TEXT/UTF8
  165. Codec ID/Info                            : UTF-8 Plain Text
  166. Duration                                 : 1 h 56 min
  167. Bit rate                                 : 1 b/s
  168. Frame rate                               : 0.006 FPS
  169. Count of elements                        : 40
  170. Stream size                              : 1.10 KiB (0%)
  171. Title                                    : Japanese (Forced)
  172. Language                                 : Japanese
  173. Default                                  : No
  174. Forced                                   : Yes
  175. Text #10
  176. ID                                       : 12
  177. Format                                   : UTF-8
  178. Codec ID                                 : S_TEXT/UTF8
  179. Codec ID/Info                            : UTF-8 Plain Text
  180. Duration                                 : 43 min 36 s
  181. Bit rate                                 : 0 b/s
  182. Frame rate                               : 0.002 FPS
  183. Count of elements                        : 6
  184. Stream size                              : 153 Bytes (0%)
  185. Title                                    : Korean (Forced)
  186. Language                                 : Korean
  187. Default                                  : Yes
  188. Forced                                   : Yes
  189. Text #11
  190. ID                                       : 13
  191. Format                                   : UTF-8
  192. Codec ID                                 : S_TEXT/UTF8
  193. Codec ID/Info                            : UTF-8 Plain Text
  194. Duration                                 : 1 h 56 min
  195. Bit rate                                 : 0 b/s
  196. Frame rate                               : 0.006 FPS
  197. Count of elements                        : 39
  198. Stream size                              : 842 Bytes (0%)
  199. Title                                    : Polish (Forced)
  200. Language                                 : Polish
  201. Default                                  : No
  202. Forced                                   : Yes
  203. Text #12
  204. ID                                       : 14
  205. Format                                   : UTF-8
  206. Codec ID                                 : S_TEXT/UTF8
  207. Codec ID/Info                            : UTF-8 Plain Text
  208. Duration                                 : 1 h 56 min
  209. Bit rate                                 : 1 b/s
  210. Frame rate                               : 0.007 FPS
  211. Count of elements                        : 51
  212. Stream size                              : 1.48 KiB (0%)
  213. Title                                    : Portuguese (Forced)
  214. Language                                 : Portuguese
  215. Default                                  : No
  216. Forced                                   : Yes
  217. Text #13
  218. ID                                       : 15
  219. Format                                   : UTF-8
  220. Codec ID                                 : S_TEXT/UTF8
  221. Codec ID/Info                            : UTF-8 Plain Text
  222. Duration                                 : 1 h 56 min
  223. Bit rate                                 : 2 b/s
  224. Frame rate                               : 0.005 FPS
  225. Count of elements                        : 36
  226. Stream size                              : 2.51 KiB (0%)
  227. Title                                    : Thai (Forced)
  228. Language                                 : Thai
  229. Default                                  : No
  230. Forced                                   : Yes
  231. Text #14
  232. ID                                       : 16
  233. Format                                   : UTF-8
  234. Codec ID                                 : S_TEXT/UTF8
  235. Codec ID/Info                            : UTF-8 Plain Text
  236. Duration                                 : 1 h 56 min
  237. Bit rate                                 : 1 b/s
  238. Frame rate                               : 0.005 FPS
  239. Count of elements                        : 33
  240. Stream size                              : 927 Bytes (0%)
  241. Title                                    : Turkish (Forced)
  242. Language                                 : Turkish
  243. Default                                  : No
  244. Forced                                   : Yes
  245. Text #15
  246. ID                                       : 17
  247. Format                                   : UTF-8
  248. Codec ID                                 : S_TEXT/UTF8
  249. Codec ID/Info                            : UTF-8 Plain Text
  250. Duration                                 : 1 h 56 min
  251. Bit rate                                 : 82 b/s
  252. Frame rate                               : 0.194 FPS
  253. Count of elements                        : 1357
  254. Stream size                              : 70.8 KiB (0%)
  255. Title                                    : Arabic
  256. Language                                 : Arabic
  257. Default                                  : No
  258. Forced                                   : No
  259. Text #16
  260. ID                                       : 18
  261. Format                                   : UTF-8
  262. Codec ID                                 : S_TEXT/UTF8
  263. Codec ID/Info                            : UTF-8 Plain Text
  264. Duration                                 : 1 h 56 min
  265. Bit rate                                 : 46 b/s
  266. Frame rate                               : 0.193 FPS
  267. Count of elements                        : 1349
  268. Stream size                              : 39.5 KiB (0%)
  269. Title                                    : Czech
  270. Language                                 : Czech
  271. Default                                  : No
  272. Forced                                   : No
  273. Text #17
  274. ID                                       : 19
  275. Format                                   : UTF-8
  276. Codec ID                                 : S_TEXT/UTF8
  277. Codec ID/Info                            : UTF-8 Plain Text
  278. Duration                                 : 1 h 56 min
  279. Bit rate                                 : 42 b/s
  280. Frame rate                               : 0.187 FPS
  281. Count of elements                        : 1311
  282. Stream size                              : 36.3 KiB (0%)
  283. Title                                    : Danish
  284. Language                                 : Danish
  285. Default                                  : No
  286. Forced                                   : No
  287. Text #18
  288. ID                                       : 20
  289. Format                                   : UTF-8
  290. Codec ID                                 : S_TEXT/UTF8
  291. Codec ID/Info                            : UTF-8 Plain Text
  292. Duration                                 : 1 h 56 min
  293. Bit rate                                 : 47 b/s
  294. Frame rate                               : 0.197 FPS
  295. Count of elements                        : 1378
  296. Stream size                              : 41.0 KiB (0%)
  297. Title                                    : German
  298. Language                                 : German
  299. Default                                  : No
  300. Forced                                   : No
  301. Text #19
  302. ID                                       : 21
  303. Format                                   : UTF-8
  304. Codec ID                                 : S_TEXT/UTF8
  305. Codec ID/Info                            : UTF-8 Plain Text
  306. Duration                                 : 1 h 56 min
  307. Bit rate                                 : 81 b/s
  308. Frame rate                               : 0.192 FPS
  309. Count of elements                        : 1342
  310. Stream size                              : 69.5 KiB (0%)
  311. Title                                    : Modern Greek (1453-)
  312. Language                                 : Greek
  313. Default                                  : No
  314. Forced                                   : No
  315. Text #20
  316. ID                                       : 22
  317. Format                                   : UTF-8
  318. Codec ID                                 : S_TEXT/UTF8
  319. Codec ID/Info                            : UTF-8 Plain Text
  320. Duration                                 : 1 h 53 min
  321. Bit rate                                 : 56 b/s
  322. Frame rate                               : 0.224 FPS
  323. Count of elements                        : 1530
  324. Stream size                              : 46.7 KiB (0%)
  325. Title                                    : English
  326. Language                                 : English
  327. Default                                  : No
  328. Forced                                   : No
  329. Text #21
  330. ID                                       : 23
  331. Format                                   : UTF-8
  332. Codec ID                                 : S_TEXT/UTF8
  333. Codec ID/Info                            : UTF-8 Plain Text
  334. Duration                                 : 1 h 53 min
  335. Bit rate                                 : 48 b/s
  336. Frame rate                               : 0.199 FPS
  337. Count of elements                        : 1354
  338. Stream size                              : 40.4 KiB (0%)
  339. Title                                    : English
  340. Language                                 : English
  341. Default                                  : No
  342. Forced                                   : No
  343. Text #22
  344. ID                                       : 24
  345. Format                                   : UTF-8
  346. Codec ID                                 : S_TEXT/UTF8
  347. Codec ID/Info                            : UTF-8 Plain Text
  348. Duration                                 : 1 h 56 min
  349. Bit rate                                 : 64 b/s
  350. Frame rate                               : 0.276 FPS
  351. Count of elements                        : 1933
  352. Stream size                              : 55.5 KiB (0%)
  353. Title                                    : English (SDH)
  354. Language                                 : English
  355. Default                                  : No
  356. Forced                                   : No
  357. Text #23
  358. ID                                       : 25
  359. Format                                   : UTF-8
  360. Codec ID                                 : S_TEXT/UTF8
  361. Codec ID/Info                            : UTF-8 Plain Text
  362. Duration                                 : 1 h 56 min
  363. Bit rate                                 : 45 b/s
  364. Frame rate                               : 0.195 FPS
  365. Count of elements                        : 1363
  366. Stream size                              : 39.0 KiB (0%)
  367. Title                                    : Spanish
  368. Language                                 : Spanish
  369. Default                                  : No
  370. Forced                                   : No
  371. Text #24
  372. ID                                       : 26
  373. Format                                   : UTF-8
  374. Codec ID                                 : S_TEXT/UTF8
  375. Codec ID/Info                            : UTF-8 Plain Text
  376. Duration                                 : 1 h 56 min
  377. Bit rate                                 : 48 b/s
  378. Frame rate                               : 0.195 FPS
  379. Count of elements                        : 1363
  380. Stream size                              : 41.4 KiB (0%)
  381. Title                                    : Spanish
  382. Language                                 : Spanish
  383. Default                                  : No
  384. Forced                                   : No
  385. Text #25
  386. ID                                       : 27
  387. Format                                   : UTF-8
  388. Codec ID                                 : S_TEXT/UTF8
  389. Codec ID/Info                            : UTF-8 Plain Text
  390. Duration                                 : 1 h 56 min
  391. Bit rate                                 : 43 b/s
  392. Frame rate                               : 0.163 FPS
  393. Count of elements                        : 1140
  394. Stream size                              : 37.0 KiB (0%)
  395. Title                                    : Finnish
  396. Language                                 : Finnish
  397. Default                                  : No
  398. Forced                                   : No
  399. Text #26
  400. ID                                       : 28
  401. Format                                   : UTF-8
  402. Codec ID                                 : S_TEXT/UTF8
  403. Codec ID/Info                            : UTF-8 Plain Text
  404. Duration                                 : 1 h 56 min
  405. Bit rate                                 : 46 b/s
  406. Frame rate                               : 0.188 FPS
  407. Count of elements                        : 1315
  408. Stream size                              : 39.5 KiB (0%)
  409. Title                                    : Filipino
  410. Language                                 : fil
  411. Default                                  : No
  412. Forced                                   : No
  413. Text #27
  414. ID                                       : 29
  415. Format                                   : UTF-8
  416. Codec ID                                 : S_TEXT/UTF8
  417. Codec ID/Info                            : UTF-8 Plain Text
  418. Duration                                 : 1 h 56 min
  419. Bit rate                                 : 47 b/s
  420. Frame rate                               : 0.195 FPS
  421. Count of elements                        : 1366
  422. Stream size                              : 41.0 KiB (0%)
  423. Title                                    : French
  424. Language                                 : French
  425. Default                                  : No
  426. Forced                                   : No
  427. Text #28
  428. ID                                       : 30
  429. Format                                   : UTF-8
  430. Codec ID                                 : S_TEXT/UTF8
  431. Codec ID/Info                            : UTF-8 Plain Text
  432. Duration                                 : 1 h 56 min
  433. Bit rate                                 : 79 b/s
  434. Frame rate                               : 0.192 FPS
  435. Count of elements                        : 1344
  436. Stream size                              : 68.1 KiB (0%)
  437. Title                                    : Hebrew
  438. Language                                 : Hebrew
  439. Default                                  : No
  440. Forced                                   : No
  441. Text #29
  442. ID                                       : 31
  443. Format                                   : UTF-8
  444. Codec ID                                 : S_TEXT/UTF8
  445. Codec ID/Info                            : UTF-8 Plain Text
  446. Duration                                 : 1 h 56 min
  447. Bit rate                                 : 41 b/s
  448. Frame rate                               : 0.194 FPS
  449. Count of elements                        : 1356
  450. Stream size                              : 35.7 KiB (0%)
  451. Title                                    : Croatian
  452. Language                                 : Croatian
  453. Default                                  : No
  454. Forced                                   : No
  455. Text #30
  456. ID                                       : 32
  457. Format                                   : UTF-8
  458. Codec ID                                 : S_TEXT/UTF8
  459. Codec ID/Info                            : UTF-8 Plain Text
  460. Duration                                 : 1 h 56 min
  461. Bit rate                                 : 44 b/s
  462. Frame rate                               : 0.195 FPS
  463. Count of elements                        : 1363
  464. Stream size                              : 37.9 KiB (0%)
  465. Title                                    : Hungarian
  466. Language                                 : Hungarian
  467. Default                                  : No
  468. Forced                                   : No
  469. Text #31
  470. ID                                       : 33
  471. Format                                   : UTF-8
  472. Codec ID                                 : S_TEXT/UTF8
  473. Codec ID/Info                            : UTF-8 Plain Text
  474. Duration                                 : 1 h 56 min
  475. Bit rate                                 : 42 b/s
  476. Frame rate                               : 0.220 FPS
  477. Count of elements                        : 1543
  478. Stream size                              : 36.3 KiB (0%)
  479. Title                                    : Indonesian
  480. Language                                 : Indonesian
  481. Default                                  : No
  482. Forced                                   : No
  483. Text #32
  484. ID                                       : 34
  485. Format                                   : UTF-8
  486. Codec ID                                 : S_TEXT/UTF8
  487. Codec ID/Info                            : UTF-8 Plain Text
  488. Duration                                 : 1 h 56 min
  489. Bit rate                                 : 52 b/s
  490. Frame rate                               : 0.196 FPS
  491. Count of elements                        : 1371
  492. Stream size                              : 45.2 KiB (0%)
  493. Title                                    : Italian
  494. Language                                 : Italian
  495. Default                                  : No
  496. Forced                                   : No
  497. Text #33
  498. ID                                       : 35
  499. Format                                   : UTF-8
  500. Codec ID                                 : S_TEXT/UTF8
  501. Codec ID/Info                            : UTF-8 Plain Text
  502. Duration                                 : 1 h 56 min
  503. Bit rate                                 : 43 b/s
  504. Frame rate                               : 0.198 FPS
  505. Count of elements                        : 1386
  506. Stream size                              : 37.3 KiB (0%)
  507. Title                                    : Japanese
  508. Language                                 : Japanese
  509. Default                                  : No
  510. Forced                                   : No
  511. Text #34
  512. ID                                       : 36
  513. Format                                   : UTF-8
  514. Codec ID                                 : S_TEXT/UTF8
  515. Codec ID/Info                            : UTF-8 Plain Text
  516. Duration                                 : 1 h 56 min
  517. Bit rate                                 : 83 b/s
  518. Frame rate                               : 0.263 FPS
  519. Count of elements                        : 1842
  520. Stream size                              : 71.2 KiB (0%)
  521. Title                                    : Korean (SDH)
  522. Language                                 : Korean
  523. Default                                  : No
  524. Forced                                   : No
  525. Text #35
  526. ID                                       : 37
  527. Format                                   : UTF-8
  528. Codec ID                                 : S_TEXT/UTF8
  529. Codec ID/Info                            : UTF-8 Plain Text
  530. Duration                                 : 1 h 56 min
  531. Bit rate                                 : 41 b/s
  532. Frame rate                               : 0.200 FPS
  533. Count of elements                        : 1398
  534. Stream size                              : 35.5 KiB (0%)
  535. Title                                    : Malay (macrolanguage)
  536. Language                                 : Malay
  537. Default                                  : No
  538. Forced                                   : No
  539. Text #36
  540. ID                                       : 38
  541. Format                                   : UTF-8
  542. Codec ID                                 : S_TEXT/UTF8
  543. Codec ID/Info                            : UTF-8 Plain Text
  544. Duration                                 : 1 h 56 min
  545. Bit rate                                 : 44 b/s
  546. Frame rate                               : 0.183 FPS
  547. Count of elements                        : 1285
  548. Stream size                              : 38.1 KiB (0%)
  549. Title                                    : Norwegian Bokm?l
  550. Language                                 : Norwegian Bokmal
  551. Default                                  : No
  552. Forced                                   : No
  553. Text #37
  554. ID                                       : 39
  555. Format                                   : UTF-8
  556. Codec ID                                 : S_TEXT/UTF8
  557. Codec ID/Info                            : UTF-8 Plain Text
  558. Duration                                 : 1 h 56 min
  559. Bit rate                                 : 41 b/s
  560. Frame rate                               : 0.173 FPS
  561. Count of elements                        : 1215
  562. Stream size                              : 35.9 KiB (0%)
  563. Title                                    : Dutch
  564. Language                                 : Dutch
  565. Default                                  : No
  566. Forced                                   : No
  567. Text #38
  568. ID                                       : 40
  569. Format                                   : UTF-8
  570. Codec ID                                 : S_TEXT/UTF8
  571. Codec ID/Info                            : UTF-8 Plain Text
  572. Duration                                 : 1 h 56 min
  573. Bit rate                                 : 44 b/s
  574. Frame rate                               : 0.193 FPS
  575. Count of elements                        : 1350
  576. Stream size                              : 38.0 KiB (0%)
  577. Title                                    : Polish
  578. Language                                 : Polish
  579. Default                                  : No
  580. Forced                                   : No
  581. Text #39
  582. ID                                       : 41
  583. Format                                   : UTF-8
  584. Codec ID                                 : S_TEXT/UTF8
  585. Codec ID/Info                            : UTF-8 Plain Text
  586. Duration                                 : 1 h 56 min
  587. Bit rate                                 : 48 b/s
  588. Frame rate                               : 0.190 FPS
  589. Count of elements                        : 1327
  590. Stream size                              : 41.1 KiB (0%)
  591. Title                                    : Portuguese
  592. Language                                 : Portuguese
  593. Default                                  : No
  594. Forced                                   : No
  595. Text #40
  596. ID                                       : 42
  597. Format                                   : UTF-8
  598. Codec ID                                 : S_TEXT/UTF8
  599. Codec ID/Info                            : UTF-8 Plain Text
  600. Duration                                 : 1 h 56 min
  601. Bit rate                                 : 44 b/s
  602. Frame rate                               : 0.195 FPS
  603. Count of elements                        : 1365
  604. Stream size                              : 38.2 KiB (0%)
  605. Title                                    : Portuguese
  606. Language                                 : Portuguese
  607. Default                                  : No
  608. Forced                                   : No
  609. Text #41
  610. ID                                       : 43
  611. Format                                   : UTF-8
  612. Codec ID                                 : S_TEXT/UTF8
  613. Codec ID/Info                            : UTF-8 Plain Text
  614. Duration                                 : 1 h 56 min
  615. Bit rate                                 : 50 b/s
  616. Frame rate                               : 0.193 FPS
  617. Count of elements                        : 1352
  618. Stream size                              : 43.2 KiB (0%)
  619. Title                                    : Romanian
  620. Language                                 : Romanian
  621. Default                                  : No
  622. Forced                                   : No
  623. Text #42
  624. ID                                       : 44
  625. Format                                   : UTF-8
  626. Codec ID                                 : S_TEXT/UTF8
  627. Codec ID/Info                            : UTF-8 Plain Text
  628. Duration                                 : 1 h 56 min
  629. Bit rate                                 : 82 b/s
  630. Frame rate                               : 0.195 FPS
  631. Count of elements                        : 1366
  632. Stream size                              : 70.6 KiB (0%)
  633. Title                                    : Russian
  634. Language                                 : Russian
  635. Default                                  : No
  636. Forced                                   : No
  637. Text #43
  638. ID                                       : 45
  639. Format                                   : UTF-8
  640. Codec ID                                 : S_TEXT/UTF8
  641. Codec ID/Info                            : UTF-8 Plain Text
  642. Duration                                 : 1 h 53 min
  643. Bit rate                                 : 49 b/s
  644. Frame rate                               : 0.170 FPS
  645. Count of elements                        : 1160
  646. Stream size                              : 41.0 KiB (0%)
  647. Title                                    : Swedish
  648. Language                                 : Swedish
  649. Default                                  : No
  650. Forced                                   : No
  651. Text #44
  652. ID                                       : 46
  653. Format                                   : UTF-8
  654. Codec ID                                 : S_TEXT/UTF8
  655. Codec ID/Info                            : UTF-8 Plain Text
  656. Duration                                 : 1 h 56 min
  657. Bit rate                                 : 135 b/s
  658. Frame rate                               : 0.219 FPS
  659. Count of elements                        : 1533
  660. Stream size                              : 116 KiB (0%)
  661. Title                                    : Thai
  662. Language                                 : Thai
  663. Default                                  : No
  664. Forced                                   : No
  665. Text #45
  666. ID                                       : 47
  667. Format                                   : UTF-8
  668. Codec ID                                 : S_TEXT/UTF8
  669. Codec ID/Info                            : UTF-8 Plain Text
  670. Duration                                 : 1 h 56 min
  671. Bit rate                                 : 46 b/s
  672. Frame rate                               : 0.184 FPS
  673. Count of elements                        : 1293
  674. Stream size                              : 39.9 KiB (0%)
  675. Title                                    : Turkish
  676. Language                                 : Turkish
  677. Default                                  : No
  678. Forced                                   : No
  679. Text #46
  680. ID                                       : 48
  681. Format                                   : UTF-8
  682. Codec ID                                 : S_TEXT/UTF8
  683. Codec ID/Info                            : UTF-8 Plain Text
  684. Duration                                 : 1 h 56 min
  685. Bit rate                                 : 81 b/s
  686. Frame rate                               : 0.195 FPS
  687. Count of elements                        : 1368
  688. Stream size                              : 69.4 KiB (0%)
  689. Title                                    : Ukrainian
  690. Language                                 : Ukrainian
  691. Default                                  : No
  692. Forced                                   : No
  693. Text #47
  694. ID                                       : 49
  695. Format                                   : UTF-8
  696. Codec ID                                 : S_TEXT/UTF8
  697. Codec ID/Info                            : UTF-8 Plain Text
  698. Duration                                 : 1 h 56 min
  699. Bit rate                                 : 74 b/s
  700. Frame rate                               : 0.193 FPS
  701. Count of elements                        : 1353
  702. Stream size                              : 63.4 KiB (0%)
  703. Title                                    : Vietnamese
  704. Language                                 : Vietnamese
  705. Default                                  : No
  706. Forced                                   : No
  707. Text #48
  708. ID                                       : 50
  709. Format                                   : UTF-8
  710. Codec ID                                 : S_TEXT/UTF8
  711. Codec ID/Info                            : UTF-8 Plain Text
  712. Duration                                 : 1 h 56 min
  713. Bit rate                                 : 52 b/s
  714. Frame rate                               : 0.224 FPS
  715. Count of elements                        : 1566
  716. Stream size                              : 45.1 KiB (0%)
  717. Title                                    : Simplified, Chinese
  718. Language                                 : Chinese
  719. Default                                  : No
  720. Forced                                   : No
  721. Text #49
  722. ID                                       : 51
  723. Format                                   : UTF-8
  724. Codec ID                                 : S_TEXT/UTF8
  725. Codec ID/Info                            : UTF-8 Plain Text
  726. Duration                                 : 1 h 56 min
  727. Bit rate                                 : 51 b/s
  728. Frame rate                               : 0.212 FPS
  729. Count of elements                        : 1483
  730. Stream size                              : 44.4 KiB (0%)
  731. Title                                    : Traditional, Chinese
  732. Language                                 : Chinese
  733. Default                                  : No
  734. Forced                                   : No
  735. Menu
  736. 00:00:00.000                             : en:Part 01
  737. 01:54:08.450                             : en:Credits
复制代码











回复

使用道具 举报

蓝光币
30
发表于 2023-1-20 10:07:17 | 显示全部楼层
楼主发贴辛苦了,谢谢楼主分享!我觉得蓝光电影网是注册对了!
回复 支持 1 反对 0

使用道具 举报

蓝光币
94
发表于 2023-1-19 16:22:17 | 显示全部楼层
顶群主辛苦发帖,少男少女最爱蓝光电影网
回复 支持 反对

使用道具 举报

蓝光币
814
发表于 2023-1-19 16:58:42 | 显示全部楼层

这东西我收了!谢谢楼主!蓝光电影网真好!
回复 支持 反对

使用道具 举报

蓝光币
260
发表于 2023-1-19 17:07:35 | 显示全部楼层

楼主太厉害了!楼主,电影应该很好看我觉得蓝光电影网真是个好地方!
回复 支持 反对

使用道具 举报

蓝光币
703
发表于 2023-1-19 17:32:22 | 显示全部楼层
这个应该是情色片吧,看着内容介绍很像,感谢楼主发的海报。
回复 支持 反对

使用道具 举报

蓝光币
34
发表于 2023-1-19 18:06:59 | 显示全部楼层

既然你诚信诚意的推荐了,那我就勉为其难的看看吧!蓝光电影网不走平凡路。
回复 支持 反对

使用道具 举报

蓝光币
40
发表于 2023-1-19 18:27:00 | 显示全部楼层

楼主太厉害了!楼主,电影应该很好看我觉得蓝光电影网真是个好地方!
回复 支持 反对

使用道具 举报

蓝光币
93
发表于 2023-1-19 19:30:00 | 显示全部楼层

论坛不能没有像楼主这样的人才啊!我会一直支持蓝光电影网。
回复 支持 反对

使用道具 举报

蓝光币
94
发表于 2023-1-19 20:12:07 | 显示全部楼层

这东西我收了!谢谢楼主!蓝光电影网真好!
回复 支持 反对

使用道具 举报

懒得打字嘛,点击右侧快捷回复 【右侧内容,后台自定义】
您需要登录后才可以回帖 登录 | 立即加入

本版积分规则

Archiver|小黑屋| 蓝光电影网 |网站地图

Copyright © 2021 Comsenz Inc. Powered by 蓝光电影网

蓝光电影网

本站内容由用户自主分享和转载自互联网,转载目的在于传递更多信息,并不代表本网赞同其观点和对其真实性负责。

如有侵权、违反国家法律政策行为,请联系我们,我们会第一时间及时清除和处理!

举报反馈邮箱:[email protected]

快速回复 返回顶部 返回列表