找回密码

查看: 2165|回复: 0

[2160p-WEB] 我的麻烦邻居[中文字幕].Fenced.In.2022.PORTUGUESE.2160p.NF.WEB-DL.x265.10bit.SDR.DDP5.1.Atmos-HHWEB 13.00GB

[复制链接]
蓝光币
2027
发表于 2023-1-25 12:07:10 | 显示全部楼层 |阅读模式


◎标  题 我的麻烦邻人
◎译  名 Vizinhos
◎片  名 Fenced In
◎年  代 2022
◎产  地 巴西
◎类  别 笑剧 / 悬疑 / 奇异
◎语  言 葡萄牙语
◎上映日期 2022-09-01(巴西收集)
◎IMDb链接 https://www.imdb.com/title/tt21742248/
◎豆瓣链接 https://movie.douban.com/subject/36077101/
◎片  长 110分钟
◎导  演 罗伯特·桑杜奇 Roberto Santucci
◎编  剧 保罗·库斯诺 Paulo Cursino
◎演  员 Hélio de la Peña Hélio de la Peña
       莱昂德罗·哈森 Leandro Hassum
◎简  介
  一次精神解体后,沃尔特分开城市来到乡下。但是,在碰到吵闹的新邻人后,他安静过活的希望完全幻灭
  1. Video
  2. ID                                       : 1
  3. Format                                   : HEVC
  4. Format/Info                              : High Efficiency Video Coding
  5. Format profile                           : Main 10@L5@Main
  6. Codec ID                                 : V_MPEGH/ISO/HEVC
  7. Duration                                 : 1 h 50 min
  8. Bit rate                                 : 16.0 Mb/s
  9. Width                                    : 3 840 pixels
  10. Height                                   : 2 160 pixels
  11. Display aspect ratio                     : 16:9
  12. Frame rate mode                          : Constant
  13. Frame rate                               : 24.000 FPS
  14. Color space                              : YUV
  15. Chroma subsampling                       : 4:2:0
  16. Bit depth                                : 10 bits
  17. Bits/(Pixel*Frame)                       : 0.081
  18. Stream size                              : 12.4 GiB (95%)
  19. Default                                  : Yes
  20. Forced                                   : No
  21. Color range                              : Limited
  22. Color primaries                          : BT.709
  23. Transfer characteristics                 : BT.709
  24. Matrix coefficients                      : BT.709
  25. Audio
  26. ID                                       : 2
  27. Format                                   : E-AC-3 JOC
  28. Format/Info                              : Enhanced AC-3 with Joint Object Coding
  29. Commercial name                          : Dolby Digital Plus with Dolby Atmos
  30. Codec ID                                 : A_EAC3
  31. Duration                                 : 1 h 50 min
  32. Bit rate mode                            : Constant
  33. Bit rate                                 : 768 kb/s
  34. Channel(s)                               : 6 channels
  35. Channel layout                           : L R C LFE Ls Rs
  36. Sampling rate                            : 48.0 kHz
  37. Frame rate                               : 31.250 FPS (1536 SPF)
  38. Compression mode                         : Lossy
  39. Stream size                              : 608 MiB (5%)
  40. Title                                    : Brazilian Portuguese
  41. Language                                 : Portuguese
  42. Service kind                             : Complete Main
  43. Default                                  : No
  44. Forced                                   : No
  45. Complexity index                         : 16
  46. Number of dynamic objects                : 15
  47. Bed channel count                        : 1 channel
  48. Bed channel configuration                : LFE
  49. Text #1
  50. ID                                       : 3
  51. Format                                   : UTF-8
  52. Codec ID                                 : S_TEXT/UTF8
  53. Codec ID/Info                            : UTF-8 Plain Text
  54. Duration                                 : 1 h 49 min
  55. Bit rate                                 : 80 b/s
  56. Frame rate                               : 0.294 FPS
  57. Count of elements                        : 1933
  58. Stream size                              : 64.6 KiB (0%)
  59. Title                                    : Chinese Simplified
  60. Language                                 : Chinese
  61. Default                                  : No
  62. Forced                                   : No
  63. Text #2
  64. ID                                       : 4
  65. Format                                   : UTF-8
  66. Codec ID                                 : S_TEXT/UTF8
  67. Codec ID/Info                            : UTF-8 Plain Text
  68. Duration                                 : 1 h 49 min
  69. Bit rate                                 : 103 b/s
  70. Frame rate                               : 0.348 FPS
  71. Count of elements                        : 2291
  72. Stream size                              : 83.1 KiB (0%)
  73. Title                                    : English [SDH]
  74. Language                                 : English
  75. Default                                  : No
  76. Forced                                   : No
  77. Text #3
  78. ID                                       : 5
  79. Format                                   : UTF-8
  80. Codec ID                                 : S_TEXT/UTF8
  81. Codec ID/Info                            : UTF-8 Plain Text
  82. Duration                                 : 1 h 49 min
  83. Bit rate                                 : 90 b/s
  84. Frame rate                               : 0.310 FPS
  85. Count of elements                        : 2033
  86. Stream size                              : 72.0 KiB (0%)
  87. Title                                    : English
  88. Language                                 : English
  89. Default                                  : No
  90. Forced                                   : No
  91. Text #4
  92. ID                                       : 6
  93. Format                                   : UTF-8
  94. Codec ID                                 : S_TEXT/UTF8
  95. Codec ID/Info                            : UTF-8 Plain Text
  96. Duration                                 : 1 h 49 min
  97. Bit rate                                 : 74 b/s
  98. Frame rate                               : 0.271 FPS
  99. Count of elements                        : 1780
  100. Stream size                              : 59.6 KiB (0%)
  101. Title                                    : German
  102. Language                                 : German
  103. Default                                  : No
  104. Forced                                   : No
  105. Text #5
  106. ID                                       : 7
  107. Format                                   : UTF-8
  108. Codec ID                                 : S_TEXT/UTF8
  109. Codec ID/Info                            : UTF-8 Plain Text
  110. Duration                                 : 1 h 49 min
  111. Bit rate                                 : 75 b/s
  112. Frame rate                               : 0.298 FPS
  113. Count of elements                        : 1962
  114. Stream size                              : 60.5 KiB (0%)
  115. Title                                    : Japanese
  116. Language                                 : Japanese
  117. Default                                  : No
  118. Forced                                   : No
  119. Text #6
  120. ID                                       : 8
  121. Format                                   : UTF-8
  122. Codec ID                                 : S_TEXT/UTF8
  123. Codec ID/Info                            : UTF-8 Plain Text
  124. Duration                                 : 1 h 49 min
  125. Bit rate                                 : 98 b/s
  126. Frame rate                               : 0.336 FPS
  127. Count of elements                        : 2210
  128. Stream size                              : 79.4 KiB (0%)
  129. Title                                    : Brazilian Portuguese [SDH]
  130. Language                                 : Portuguese
  131. Default                                  : No
  132. Forced                                   : No
  133. Text #7
  134. ID                                       : 9
  135. Format                                   : UTF-8
  136. Codec ID                                 : S_TEXT/UTF8
  137. Codec ID/Info                            : UTF-8 Plain Text
  138. Duration                                 : 1 h 48 min
  139. Bit rate                                 : 88 b/s
  140. Frame rate                               : 0.299 FPS
  141. Count of elements                        : 1942
  142. Stream size                              : 70.4 KiB (0%)
  143. Title                                    : Brazilian Portuguese
  144. Language                                 : Portuguese
  145. Default                                  : No
  146. Forced                                   : No
  147. Text #8
  148. ID                                       : 10
  149. Format                                   : UTF-8
  150. Codec ID                                 : S_TEXT/UTF8
  151. Codec ID/Info                            : UTF-8 Plain Text
  152. Duration                                 : 1 h 49 min
  153. Bit rate                                 : 115 b/s
  154. Frame rate                               : 0.290 FPS
  155. Count of elements                        : 1906
  156. Stream size                              : 93.0 KiB (0%)
  157. Title                                    : Ukrainian
  158. Language                                 : Ukrainian
  159. Default                                  : No
  160. Forced                                   : No
复制代码











回复

使用道具 举报

懒得打字嘛,点击右侧快捷回复 【右侧内容,后台自定义】
您需要登录后才可以回帖 登录 | 立即加入

本版积分规则

Archiver| |网站地图

Copyright © 2024 Comsenz Inc. Powered by 蓝光电影网

本站内容由用户自主分享和转载自互联网,转载目的在于传递更多信息,并不代表本网赞同其观点和对其真实性负责。

如有侵权、违反国家法律政策行为,请联系我们,我们会第一时间及时清除和处理!

举报反馈邮箱:4k1080.com@gmail.com

快速回复 返回顶部 返回列表