找回密码

蓝光电影网

查看: 12|回复: 0

[2160p-WEB] 站在滑板上:利奥·贝克的故事[中文字幕].Stay.on.Board.The.Leo.Baker.Story.2022.2160p.NF.WEB-DL.x265.10bit.HDR.DDP5.1-XEBEC 8.55GB

[复制链接]
蓝光币
1084
发表于 2023-1-25 12:07:18 | 显示全部楼层 |阅读模式


◎标  题 站在滑板上:利奥·贝克的故事
◎片  名 Stay on Board: The Leo Baker Story
◎年  代 2022
◎产  地 美国
◎类  别 记载片 / 活动
◎语  言 英语
◎上映日期 2022-07-21(美国)
◎IMDb评分 5.8/10 (48人评价)
◎IMDb链接 https://www.imdb.com/title/tt21100124/
◎豆瓣链接 https://movie.douban.com/subject/35948848/
◎片  长 72分钟
◎简  介
  这部的记载片将经过美国滑板运带动、非二元跨儿利奥·贝克的履历,探讨滑板这项活动的性别题目。
  1. Video
  2. ID                                       : 1
  3. Format                                   : HEVC
  4. Format/Info                              : High Efficiency Video Coding
  5. Format profile                           : Main [email protected]@Main
  6. HDR format                               : Dolby Vision, Version 1.0, dvhe.08.06, BL+RPU, HDR10 compatible / SMPTE ST 2086, HDR10 compatible
  7. Codec ID                                 : V_MPEGH/ISO/HEVC
  8. Duration                                 : 1 h 12 min
  9. Bit rate                                 : 16.1 Mb/s
  10. Width                                    : 3 840 pixels
  11. Height                                   : 2 160 pixels
  12. Display aspect ratio                     : 16:9
  13. Frame rate mode                          : Constant
  14. Frame rate                               : 23.976 (24000/1001) FPS
  15. Color space                              : YUV
  16. Chroma subsampling                       : 4:2:0 (Type 2)
  17. Bit depth                                : 10 bits
  18. Bits/(Pixel*Frame)                       : 0.081
  19. Stream size                              : 8.22 GiB (96%)
  20. Default                                  : Yes
  21. Forced                                   : No
  22. Color range                              : Limited
  23. Color primaries                          : BT.2020
  24. Transfer characteristics                 : PQ
  25. Matrix coefficients                      : BT.2020 non-constant
  26. Mastering display color primaries        : Display P3
  27. Mastering display luminance              : min: 0.0001 cd/m2, max: 1000 cd/m2
  28. Maximum Content Light Level              : 1033 cd/m2
  29. Maximum Frame-Average Light Level        : 325 cd/m2
  30. Audio
  31. ID                                       : 2
  32. Format                                   : E-AC-3
  33. Format/Info                              : Enhanced AC-3
  34. Commercial name                          : Dolby Digital Plus
  35. Codec ID                                 : A_EAC3
  36. Duration                                 : 1 h 13 min
  37. Bit rate mode                            : Constant
  38. Bit rate                                 : 640 kb/s
  39. Channel(s)                               : 6 channels
  40. Channel layout                           : L R C LFE Ls Rs
  41. Sampling rate                            : 48.0 kHz
  42. Frame rate                               : 31.250 FPS (1536 SPF)
  43. Compression mode                         : Lossy
  44. Stream size                              : 335 MiB (4%)
  45. Title                                    : English
  46. Language                                 : English
  47. Service kind                             : Complete Main
  48. Default                                  : Yes
  49. Forced                                   : No
  50. Text #1
  51. ID                                       : 3
  52. Format                                   : UTF-8
  53. Codec ID                                 : S_TEXT/UTF8
  54. Codec ID/Info                            : UTF-8 Plain Text
  55. Duration                                 : 42 min 18 s
  56. Bit rate                                 : 2 b/s
  57. Frame rate                               : 0.007 FPS
  58. Count of elements                        : 19
  59. Stream size                              : 738 Bytes (0%)
  60. Title                                    : English (Forced)
  61. Language                                 : English
  62. Default                                  : Yes
  63. Forced                                   : Yes
  64. Text #2
  65. ID                                       : 4
  66. Format                                   : UTF-8
  67. Codec ID                                 : S_TEXT/UTF8
  68. Codec ID/Info                            : UTF-8 Plain Text
  69. Duration                                 : 1 h 12 min
  70. Bit rate                                 : 132 b/s
  71. Frame rate                               : 0.261 FPS
  72. Count of elements                        : 1138
  73. Stream size                              : 70.6 KiB (0%)
  74. Title                                    : Arabic
  75. Language                                 : Arabic
  76. Default                                  : No
  77. Forced                                   : No
  78. Text #3
  79. ID                                       : 5
  80. Format                                   : UTF-8
  81. Codec ID                                 : S_TEXT/UTF8
  82. Codec ID/Info                            : UTF-8 Plain Text
  83. Duration                                 : 1 h 12 min
  84. Bit rate                                 : 71 b/s
  85. Frame rate                               : 0.242 FPS
  86. Count of elements                        : 1054
  87. Stream size                              : 38.0 KiB (0%)
  88. Title                                    : Czech
  89. Language                                 : Czech
  90. Default                                  : No
  91. Forced                                   : No
  92. Text #4
  93. ID                                       : 6
  94. Format                                   : UTF-8
  95. Codec ID                                 : S_TEXT/UTF8
  96. Codec ID/Info                            : UTF-8 Plain Text
  97. Duration                                 : 1 h 12 min
  98. Bit rate                                 : 71 b/s
  99. Frame rate                               : 0.241 FPS
  100. Count of elements                        : 1047
  101. Stream size                              : 37.7 KiB (0%)
  102. Title                                    : Danish
  103. Language                                 : Danish
  104. Default                                  : No
  105. Forced                                   : No
  106. Text #5
  107. ID                                       : 7
  108. Format                                   : UTF-8
  109. Codec ID                                 : S_TEXT/UTF8
  110. Codec ID/Info                            : UTF-8 Plain Text
  111. Duration                                 : 1 h 12 min
  112. Bit rate                                 : 73 b/s
  113. Frame rate                               : 0.252 FPS
  114. Count of elements                        : 1099
  115. Stream size                              : 38.9 KiB (0%)
  116. Title                                    : German
  117. Language                                 : German
  118. Default                                  : No
  119. Forced                                   : No
  120. Text #6
  121. ID                                       : 8
  122. Format                                   : UTF-8
  123. Codec ID                                 : S_TEXT/UTF8
  124. Codec ID/Info                            : UTF-8 Plain Text
  125. Duration                                 : 1 h 12 min
  126. Bit rate                                 : 119 b/s
  127. Frame rate                               : 0.239 FPS
  128. Count of elements                        : 1041
  129. Stream size                              : 63.5 KiB (0%)
  130. Title                                    : Modern Greek (1453-)
  131. Language                                 : Greek
  132. Default                                  : No
  133. Forced                                   : No
  134. Text #7
  135. ID                                       : 9
  136. Format                                   : UTF-8
  137. Codec ID                                 : S_TEXT/UTF8
  138. Codec ID/Info                            : UTF-8 Plain Text
  139. Duration                                 : 1 h 12 min
  140. Bit rate                                 : 97 b/s
  141. Frame rate                               : 0.293 FPS
  142. Count of elements                        : 1279
  143. Stream size                              : 51.7 KiB (0%)
  144. Title                                    : English (SDH)
  145. Language                                 : English
  146. Default                                  : No
  147. Forced                                   : No
  148. Text #8
  149. ID                                       : 10
  150. Format                                   : UTF-8
  151. Codec ID                                 : S_TEXT/UTF8
  152. Codec ID/Info                            : UTF-8 Plain Text
  153. Duration                                 : 1 h 12 min
  154. Bit rate                                 : 75 b/s
  155. Frame rate                               : 0.242 FPS
  156. Count of elements                        : 1055
  157. Stream size                              : 39.9 KiB (0%)
  158. Title                                    : Spanish
  159. Language                                 : Spanish
  160. Default                                  : No
  161. Forced                                   : No
  162. Text #9
  163. ID                                       : 11
  164. Format                                   : UTF-8
  165. Codec ID                                 : S_TEXT/UTF8
  166. Codec ID/Info                            : UTF-8 Plain Text
  167. Duration                                 : 1 h 12 min
  168. Bit rate                                 : 70 b/s
  169. Frame rate                               : 0.241 FPS
  170. Count of elements                        : 1050
  171. Stream size                              : 37.3 KiB (0%)
  172. Title                                    : Spanish
  173. Language                                 : Spanish
  174. Default                                  : No
  175. Forced                                   : No
  176. Text #10
  177. ID                                       : 12
  178. Format                                   : UTF-8
  179. Codec ID                                 : S_TEXT/UTF8
  180. Codec ID/Info                            : UTF-8 Plain Text
  181. Duration                                 : 1 h 12 min
  182. Bit rate                                 : 61 b/s
  183. Frame rate                               : 0.183 FPS
  184. Count of elements                        : 797
  185. Stream size                              : 32.8 KiB (0%)
  186. Title                                    : Finnish
  187. Language                                 : Finnish
  188. Default                                  : No
  189. Forced                                   : No
  190. Text #11
  191. ID                                       : 13
  192. Format                                   : UTF-8
  193. Codec ID                                 : S_TEXT/UTF8
  194. Codec ID/Info                            : UTF-8 Plain Text
  195. Duration                                 : 1 h 12 min
  196. Bit rate                                 : 72 b/s
  197. Frame rate                               : 0.249 FPS
  198. Count of elements                        : 1083
  199. Stream size                              : 38.4 KiB (0%)
  200. Title                                    : French
  201. Language                                 : French
  202. Default                                  : No
  203. Forced                                   : No
  204. Text #12
  205. ID                                       : 14
  206. Format                                   : UTF-8
  207. Codec ID                                 : S_TEXT/UTF8
  208. Codec ID/Info                            : UTF-8 Plain Text
  209. Duration                                 : 1 h 12 min
  210. Bit rate                                 : 124 b/s
  211. Frame rate                               : 0.260 FPS
  212. Count of elements                        : 1132
  213. Stream size                              : 66.1 KiB (0%)
  214. Title                                    : Hebrew
  215. Language                                 : Hebrew
  216. Default                                  : No
  217. Forced                                   : No
  218. Text #13
  219. ID                                       : 15
  220. Format                                   : UTF-8
  221. Codec ID                                 : S_TEXT/UTF8
  222. Codec ID/Info                            : UTF-8 Plain Text
  223. Duration                                 : 1 h 12 min
  224. Bit rate                                 : 67 b/s
  225. Frame rate                               : 0.236 FPS
  226. Count of elements                        : 1028
  227. Stream size                              : 35.9 KiB (0%)
  228. Title                                    : Croatian
  229. Language                                 : Croatian
  230. Default                                  : No
  231. Forced                                   : No
  232. Text #14
  233. ID                                       : 16
  234. Format                                   : UTF-8
  235. Codec ID                                 : S_TEXT/UTF8
  236. Codec ID/Info                            : UTF-8 Plain Text
  237. Duration                                 : 1 h 12 min
  238. Bit rate                                 : 69 b/s
  239. Frame rate                               : 0.252 FPS
  240. Count of elements                        : 1097
  241. Stream size                              : 36.9 KiB (0%)
  242. Title                                    : Hungarian
  243. Language                                 : Hungarian
  244. Default                                  : No
  245. Forced                                   : No
  246. Text #15
  247. ID                                       : 17
  248. Format                                   : UTF-8
  249. Codec ID                                 : S_TEXT/UTF8
  250. Codec ID/Info                            : UTF-8 Plain Text
  251. Duration                                 : 1 h 12 min
  252. Bit rate                                 : 68 b/s
  253. Frame rate                               : 0.244 FPS
  254. Count of elements                        : 1063
  255. Stream size                              : 36.5 KiB (0%)
  256. Title                                    : Indonesian
  257. Language                                 : Indonesian
  258. Default                                  : No
  259. Forced                                   : No
  260. Text #16
  261. ID                                       : 18
  262. Format                                   : UTF-8
  263. Codec ID                                 : S_TEXT/UTF8
  264. Codec ID/Info                            : UTF-8 Plain Text
  265. Duration                                 : 1 h 12 min
  266. Bit rate                                 : 73 b/s
  267. Frame rate                               : 0.222 FPS
  268. Count of elements                        : 967
  269. Stream size                              : 39.0 KiB (0%)
  270. Title                                    : Italian
  271. Language                                 : Italian
  272. Default                                  : No
  273. Forced                                   : No
  274. Text #17
  275. ID                                       : 19
  276. Format                                   : UTF-8
  277. Codec ID                                 : S_TEXT/UTF8
  278. Codec ID/Info                            : UTF-8 Plain Text
  279. Duration                                 : 1 h 12 min
  280. Bit rate                                 : 102 b/s
  281. Frame rate                               : 0.283 FPS
  282. Count of elements                        : 1234
  283. Stream size                              : 54.4 KiB (0%)
  284. Title                                    : Japanese
  285. Language                                 : Japanese
  286. Default                                  : No
  287. Forced                                   : No
  288. Text #18
  289. ID                                       : 20
  290. Format                                   : UTF-8
  291. Codec ID                                 : S_TEXT/UTF8
  292. Codec ID/Info                            : UTF-8 Plain Text
  293. Duration                                 : 1 h 12 min
  294. Bit rate                                 : 99 b/s
  295. Frame rate                               : 0.263 FPS
  296. Count of elements                        : 1149
  297. Stream size                              : 52.7 KiB (0%)
  298. Title                                    : Korean
  299. Language                                 : Korean
  300. Default                                  : No
  301. Forced                                   : No
  302. Text #19
  303. ID                                       : 21
  304. Format                                   : UTF-8
  305. Codec ID                                 : S_TEXT/UTF8
  306. Codec ID/Info                            : UTF-8 Plain Text
  307. Duration                                 : 1 h 12 min
  308. Bit rate                                 : 67 b/s
  309. Frame rate                               : 0.247 FPS
  310. Count of elements                        : 1073
  311. Stream size                              : 36.0 KiB (0%)
  312. Title                                    : Malay (macrolanguage)
  313. Language                                 : Malay
  314. Default                                  : No
  315. Forced                                   : No
  316. Text #20
  317. ID                                       : 22
  318. Format                                   : UTF-8
  319. Codec ID                                 : S_TEXT/UTF8
  320. Codec ID/Info                            : UTF-8 Plain Text
  321. Duration                                 : 1 h 12 min
  322. Bit rate                                 : 71 b/s
  323. Frame rate                               : 0.241 FPS
  324. Count of elements                        : 1047
  325. Stream size                              : 37.8 KiB (0%)
  326. Title                                    : Norwegian Bokm?l
  327. Language                                 : Norwegian Bokmal
  328. Default                                  : No
  329. Forced                                   : No
  330. Text #21
  331. ID                                       : 23
  332. Format                                   : UTF-8
  333. Codec ID                                 : S_TEXT/UTF8
  334. Codec ID/Info                            : UTF-8 Plain Text
  335. Duration                                 : 1 h 12 min
  336. Bit rate                                 : 72 b/s
  337. Frame rate                               : 0.226 FPS
  338. Count of elements                        : 983
  339. Stream size                              : 38.5 KiB (0%)
  340. Title                                    : Dutch
  341. Language                                 : Dutch
  342. Default                                  : No
  343. Forced                                   : No
  344. Text #22
  345. ID                                       : 24
  346. Format                                   : UTF-8
  347. Codec ID                                 : S_TEXT/UTF8
  348. Codec ID/Info                            : UTF-8 Plain Text
  349. Duration                                 : 1 h 12 min
  350. Bit rate                                 : 66 b/s
  351. Frame rate                               : 0.243 FPS
  352. Count of elements                        : 1057
  353. Stream size                              : 35.4 KiB (0%)
  354. Title                                    : Polish
  355. Language                                 : Polish
  356. Default                                  : No
  357. Forced                                   : No
  358. Text #23
  359. ID                                       : 25
  360. Format                                   : UTF-8
  361. Codec ID                                 : S_TEXT/UTF8
  362. Codec ID/Info                            : UTF-8 Plain Text
  363. Duration                                 : 1 h 12 min
  364. Bit rate                                 : 73 b/s
  365. Frame rate                               : 0.249 FPS
  366. Count of elements                        : 1085
  367. Stream size                              : 39.0 KiB (0%)
  368. Title                                    : Portuguese
  369. Language                                 : Portuguese
  370. Default                                  : No
  371. Forced                                   : No
  372. Text #24
  373. ID                                       : 26
  374. Format                                   : UTF-8
  375. Codec ID                                 : S_TEXT/UTF8
  376. Codec ID/Info                            : UTF-8 Plain Text
  377. Duration                                 : 1 h 11 min
  378. Bit rate                                 : 69 b/s
  379. Frame rate                               : 0.229 FPS
  380. Count of elements                        : 984
  381. Stream size                              : 36.3 KiB (0%)
  382. Title                                    : Portuguese
  383. Language                                 : Portuguese
  384. Default                                  : No
  385. Forced                                   : No
  386. Text #25
  387. ID                                       : 27
  388. Format                                   : UTF-8
  389. Codec ID                                 : S_TEXT/UTF8
  390. Codec ID/Info                            : UTF-8 Plain Text
  391. Duration                                 : 1 h 12 min
  392. Bit rate                                 : 73 b/s
  393. Frame rate                               : 0.221 FPS
  394. Count of elements                        : 964
  395. Stream size                              : 39.2 KiB (0%)
  396. Title                                    : Romanian
  397. Language                                 : Romanian
  398. Default                                  : No
  399. Forced                                   : No
  400. Text #26
  401. ID                                       : 28
  402. Format                                   : UTF-8
  403. Codec ID                                 : S_TEXT/UTF8
  404. Codec ID/Info                            : UTF-8 Plain Text
  405. Duration                                 : 1 h 12 min
  406. Bit rate                                 : 130 b/s
  407. Frame rate                               : 0.244 FPS
  408. Count of elements                        : 1064
  409. Stream size                              : 69.4 KiB (0%)
  410. Title                                    : Russian
  411. Language                                 : Russian
  412. Default                                  : No
  413. Forced                                   : No
  414. Text #27
  415. ID                                       : 29
  416. Format                                   : UTF-8
  417. Codec ID                                 : S_TEXT/UTF8
  418. Codec ID/Info                            : UTF-8 Plain Text
  419. Duration                                 : 1 h 12 min
  420. Bit rate                                 : 69 b/s
  421. Frame rate                               : 0.238 FPS
  422. Count of elements                        : 1036
  423. Stream size                              : 36.8 KiB (0%)
  424. Title                                    : Swedish
  425. Language                                 : Swedish
  426. Default                                  : No
  427. Forced                                   : No
  428. Text #28
  429. ID                                       : 30
  430. Format                                   : UTF-8
  431. Codec ID                                 : S_TEXT/UTF8
  432. Codec ID/Info                            : UTF-8 Plain Text
  433. Duration                                 : 1 h 12 min
  434. Bit rate                                 : 199 b/s
  435. Frame rate                               : 0.260 FPS
  436. Count of elements                        : 1134
  437. Stream size                              : 106 KiB (0%)
  438. Title                                    : Thai
  439. Language                                 : Thai
  440. Default                                  : No
  441. Forced                                   : No
  442. Text #29
  443. ID                                       : 31
  444. Format                                   : UTF-8
  445. Codec ID                                 : S_TEXT/UTF8
  446. Codec ID/Info                            : UTF-8 Plain Text
  447. Duration                                 : 1 h 12 min
  448. Bit rate                                 : 71 b/s
  449. Frame rate                               : 0.251 FPS
  450. Count of elements                        : 1091
  451. Stream size                              : 38.0 KiB (0%)
  452. Title                                    : Turkish
  453. Language                                 : Turkish
  454. Default                                  : No
  455. Forced                                   : No
  456. Text #30
  457. ID                                       : 32
  458. Format                                   : UTF-8
  459. Codec ID                                 : S_TEXT/UTF8
  460. Codec ID/Info                            : UTF-8 Plain Text
  461. Duration                                 : 1 h 12 min
  462. Bit rate                                 : 110 b/s
  463. Frame rate                               : 0.252 FPS
  464. Count of elements                        : 1099
  465. Stream size                              : 58.8 KiB (0%)
  466. Title                                    : Ukrainian
  467. Language                                 : Ukrainian
  468. Default                                  : No
  469. Forced                                   : No
  470. Text #31
  471. ID                                       : 33
  472. Format                                   : UTF-8
  473. Codec ID                                 : S_TEXT/UTF8
  474. Codec ID/Info                            : UTF-8 Plain Text
  475. Duration                                 : 1 h 12 min
  476. Bit rate                                 : 103 b/s
  477. Frame rate                               : 0.253 FPS
  478. Count of elements                        : 1101
  479. Stream size                              : 54.7 KiB (0%)
  480. Title                                    : Vietnamese
  481. Language                                 : Vietnamese
  482. Default                                  : No
  483. Forced                                   : No
  484. Text #32
  485. ID                                       : 34
  486. Format                                   : UTF-8
  487. Codec ID                                 : S_TEXT/UTF8
  488. Codec ID/Info                            : UTF-8 Plain Text
  489. Duration                                 : 1 h 12 min
  490. Bit rate                                 : 74 b/s
  491. Frame rate                               : 0.255 FPS
  492. Count of elements                        : 1110
  493. Stream size                              : 39.9 KiB (0%)
  494. Title                                    : Simplified, Chinese
  495. Language                                 : Chinese
  496. Default                                  : No
  497. Forced                                   : No
  498. Text #33
  499. ID                                       : 35
  500. Format                                   : UTF-8
  501. Codec ID                                 : S_TEXT/UTF8
  502. Codec ID/Info                            : UTF-8 Plain Text
  503. Duration                                 : 1 h 12 min
  504. Bit rate                                 : 81 b/s
  505. Frame rate                               : 0.254 FPS
  506. Count of elements                        : 1107
  507. Stream size                              : 43.4 KiB (0%)
  508. Title                                    : Traditional, Chinese
  509. Language                                 : Chinese
  510. Default                                  : No
  511. Forced                                   : No
  512. Menu
  513. 00:00:00.000                             : en:Part 01
  514. 01:12:03.450                             : en:Credits
复制代码











回复

使用道具 举报

懒得打字嘛,点击右侧快捷回复 【右侧内容,后台自定义】
您需要登录后才可以回帖 登录 | 立即加入

本版积分规则

Archiver|小黑屋| 蓝光电影网 |网站地图

Copyright © 2021 Comsenz Inc. Powered by 蓝光电影网

蓝光电影网

本站内容由用户自主分享和转载自互联网,转载目的在于传递更多信息,并不代表本网赞同其观点和对其真实性负责。

如有侵权、违反国家法律政策行为,请联系我们,我们会第一时间及时清除和处理!

举报反馈邮箱:[email protected]

快速回复 返回顶部 返回列表