找回密码

蓝光电影网

查看: 30|回复: 0

[2160p-WEB] 菲戈往事:改变足坛的世纪转会[中文字幕].The.Figo.Affair.The.Transfer.that.Changed.Football.2022.SPANISH.2160p.NF.WEB-DL.x265.10bit.HDR.DDP5.1.Atmos-XEBEC 12.54GB

[复制链接]
蓝光币
1084
发表于 2023-1-25 12:07:21 | 显示全部楼层 |阅读模式


◎标  题 菲戈往事:改变足坛的世纪转会
◎片  名 The Figo Affair: The Transfer that Changed Football
◎年  代 2022
◎产  地 英国
◎类  别 记载片
◎语  言 英语 / 西班牙语
◎上映日期 2022-08-25(英国)
◎IMDb评分 7.1/10 (4413人评价)
◎IMDb链接 https://www.imdb.com/title/tt21836538/
◎豆瓣评分 7.8/10 (374人评价)
◎豆瓣链接 https://movie.douban.com/subject/36071334/
◎片  长 105分钟
◎演  员 路易斯·菲戈 Luis Figo
       弗洛伦蒂诺·佩雷斯 Florentino Pérez
       何塞普·瓜迪奥拉 Josep Guardiola
       罗伯托·卡洛斯 Roberto Carlos
       费尔南多·耶罗 Fernando Hierro
       豪尔赫·巴尔达诺 Jorge Valdano
       Paulo Futre Paulo Futre
       Joan Gaspart Joan Gaspart
◎简  介
    1998 年一个恼人的夏日薄暮,天下足坛最炙手可热的球员路易斯·菲戈走上哥特式加泰罗尼亚宫(加泰罗尼亚总统的府邸)的阳台。他身穿俱乐部套装,头发染成蓝色和红色,在一群庆贺巴塞罗那最新联赛冠军的狂热观众眼前捉住麦克风,高唱:“白衣抽泣,新王即位!”“皇马嘤嘤哭,冠军齐喝彩!”两年后,他来到巴塞罗那的诺坎普活动场,身上穿着的却正是那套红色球衣。他是皇马那支“银河舰队”中第一个加盟的巨星;他是天下上身价最高、支出最高的足球运带动;他是加泰罗尼亚最悔恨的人。                                                                      路易斯·菲戈打破了转会记录,割裂了一个国家,塑造了现代足球;《菲戈往事:改变足坛的世纪转会》让观众深入领会菲戈,报告了令人沉迷的故事:他的转会是若何实现的、幕后买卖进程中的一波三折、载入史册的体坛死敌、深入的文化分歧,以及猪头事务。
  1. Video
  2. ID                                       : 1
  3. Format                                   : HEVC
  4. Format/Info                              : High Efficiency Video Coding
  5. Format profile                           : Main [email protected]@Main
  6. HDR format                               : Dolby Vision, Version 1.0, dvhe.08.07, BL+RPU, HDR10 compatible / SMPTE ST 2086, HDR10 compatible
  7. Codec ID                                 : V_MPEGH/ISO/HEVC
  8. Duration                                 : 1 h 44 min
  9. Bit rate                                 : 15.7 Mb/s
  10. Width                                    : 3 840 pixels
  11. Height                                   : 2 160 pixels
  12. Display aspect ratio                     : 16:9
  13. Frame rate mode                          : Constant
  14. Frame rate                               : 25.000 FPS
  15. Color space                              : YUV
  16. Chroma subsampling                       : 4:2:0 (Type 2)
  17. Bit depth                                : 10 bits
  18. Bits/(Pixel*Frame)                       : 0.076
  19. Stream size                              : 11.5 GiB (92%)
  20. Default                                  : Yes
  21. Forced                                   : No
  22. Color range                              : Limited
  23. Color primaries                          : BT.2020
  24. Transfer characteristics                 : PQ
  25. Matrix coefficients                      : BT.2020 non-constant
  26. Mastering display color primaries        : Display P3
  27. Mastering display luminance              : min: 0.0001 cd/m2, max: 1000 cd/m2
  28. Maximum Content Light Level              : 2651 cd/m2
  29. Maximum Frame-Average Light Level        : 147 cd/m2
  30. Audio #1
  31. ID                                       : 2
  32. Format                                   : E-AC-3 JOC
  33. Format/Info                              : Enhanced AC-3 with Joint Object Coding
  34. Commercial name                          : Dolby Digital Plus with Dolby Atmos
  35. Codec ID                                 : A_EAC3
  36. Duration                                 : 1 h 45 min
  37. Bit rate mode                            : Constant
  38. Bit rate                                 : 768 kb/s
  39. Channel(s)                               : 6 channels
  40. Channel layout                           : L R C LFE Ls Rs
  41. Sampling rate                            : 48.0 kHz
  42. Frame rate                               : 31.250 FPS (1536 SPF)
  43. Compression mode                         : Lossy
  44. Stream size                              : 580 MiB (5%)
  45. Title                                    : Spanish
  46. Language                                 : Spanish
  47. Service kind                             : Complete Main
  48. Default                                  : Yes
  49. Forced                                   : No
  50. Complexity index                         : 16
  51. Number of dynamic objects                : 15
  52. Bed channel count                        : 1 channel
  53. Bed channel configuration                : LFE
  54. Audio #2
  55. ID                                       : 3
  56. Format                                   : E-AC-3
  57. Format/Info                              : Enhanced AC-3
  58. Commercial name                          : Dolby Digital Plus
  59. Codec ID                                 : A_EAC3
  60. Duration                                 : 1 h 45 min
  61. Bit rate mode                            : Constant
  62. Bit rate                                 : 640 kb/s
  63. Channel(s)                               : 6 channels
  64. Channel layout                           : L R C LFE Ls Rs
  65. Sampling rate                            : 48.0 kHz
  66. Frame rate                               : 31.250 FPS (1536 SPF)
  67. Compression mode                         : Lossy
  68. Stream size                              : 483 MiB (4%)
  69. Title                                    : English
  70. Language                                 : English
  71. Service kind                             : Complete Main
  72. Default                                  : No
  73. Forced                                   : No
  74. Text #1
  75. ID                                       : 4
  76. Format                                   : UTF-8
  77. Codec ID                                 : S_TEXT/UTF8
  78. Codec ID/Info                            : UTF-8 Plain Text
  79. Duration                                 : 1 h 41 min
  80. Bit rate                                 : 28 b/s
  81. Frame rate                               : 0.086 FPS
  82. Count of elements                        : 523
  83. Stream size                              : 20.8 KiB (0%)
  84. Title                                    : English (Forced)
  85. Language                                 : English
  86. Default                                  : No
  87. Forced                                   : Yes
  88. Text #2
  89. ID                                       : 5
  90. Format                                   : UTF-8
  91. Codec ID                                 : S_TEXT/UTF8
  92. Codec ID/Info                            : UTF-8 Plain Text
  93. Duration                                 : 1 h 40 min
  94. Bit rate                                 : 22 b/s
  95. Frame rate                               : 0.071 FPS
  96. Count of elements                        : 429
  97. Stream size                              : 16.6 KiB (0%)
  98. Title                                    : Spanish (Forced)
  99. Language                                 : Spanish
  100. Default                                  : Yes
  101. Forced                                   : Yes
  102. Text #3
  103. ID                                       : 6
  104. Format                                   : UTF-8
  105. Codec ID                                 : S_TEXT/UTF8
  106. Codec ID/Info                            : UTF-8 Plain Text
  107. Duration                                 : 1 h 44 min
  108. Bit rate                                 : 122 b/s
  109. Frame rate                               : 0.216 FPS
  110. Count of elements                        : 1358
  111. Stream size                              : 94.1 KiB (0%)
  112. Title                                    : Arabic
  113. Language                                 : Arabic
  114. Default                                  : No
  115. Forced                                   : No
  116. Text #4
  117. ID                                       : 7
  118. Format                                   : UTF-8
  119. Codec ID                                 : S_TEXT/UTF8
  120. Codec ID/Info                            : UTF-8 Plain Text
  121. Duration                                 : 1 h 44 min
  122. Bit rate                                 : 64 b/s
  123. Frame rate                               : 0.181 FPS
  124. Count of elements                        : 1134
  125. Stream size                              : 49.5 KiB (0%)
  126. Title                                    : Czech
  127. Language                                 : Czech
  128. Default                                  : No
  129. Forced                                   : No
  130. Text #5
  131. ID                                       : 8
  132. Format                                   : UTF-8
  133. Codec ID                                 : S_TEXT/UTF8
  134. Codec ID/Info                            : UTF-8 Plain Text
  135. Duration                                 : 1 h 44 min
  136. Bit rate                                 : 65 b/s
  137. Frame rate                               : 0.205 FPS
  138. Count of elements                        : 1287
  139. Stream size                              : 50.4 KiB (0%)
  140. Title                                    : Danish
  141. Language                                 : Danish
  142. Default                                  : No
  143. Forced                                   : No
  144. Text #6
  145. ID                                       : 9
  146. Format                                   : UTF-8
  147. Codec ID                                 : S_TEXT/UTF8
  148. Codec ID/Info                            : UTF-8 Plain Text
  149. Duration                                 : 1 h 44 min
  150. Bit rate                                 : 69 b/s
  151. Frame rate                               : 0.207 FPS
  152. Count of elements                        : 1299
  153. Stream size                              : 53.1 KiB (0%)
  154. Title                                    : German
  155. Language                                 : German
  156. Default                                  : No
  157. Forced                                   : No
  158. Text #7
  159. ID                                       : 10
  160. Format                                   : UTF-8
  161. Codec ID                                 : S_TEXT/UTF8
  162. Codec ID/Info                            : UTF-8 Plain Text
  163. Duration                                 : 1 h 44 min
  164. Bit rate                                 : 118 b/s
  165. Frame rate                               : 0.211 FPS
  166. Count of elements                        : 1325
  167. Stream size                              : 91.0 KiB (0%)
  168. Title                                    : Modern Greek (1453-)
  169. Language                                 : Greek
  170. Default                                  : No
  171. Forced                                   : No
  172. Text #8
  173. ID                                       : 11
  174. Format                                   : UTF-8
  175. Codec ID                                 : S_TEXT/UTF8
  176. Codec ID/Info                            : UTF-8 Plain Text
  177. Duration                                 : 1 h 44 min
  178. Bit rate                                 : 68 b/s
  179. Frame rate                               : 0.208 FPS
  180. Count of elements                        : 1308
  181. Stream size                              : 52.6 KiB (0%)
  182. Title                                    : English
  183. Language                                 : English
  184. Default                                  : No
  185. Forced                                   : No
  186. Text #9
  187. ID                                       : 12
  188. Format                                   : UTF-8
  189. Codec ID                                 : S_TEXT/UTF8
  190. Codec ID/Info                            : UTF-8 Plain Text
  191. Duration                                 : 1 h 42 min
  192. Bit rate                                 : 83 b/s
  193. Frame rate                               : 0.246 FPS
  194. Count of elements                        : 1508
  195. Stream size                              : 62.6 KiB (0%)
  196. Title                                    : English (SDH)
  197. Language                                 : English
  198. Default                                  : No
  199. Forced                                   : No
  200. Text #10
  201. ID                                       : 13
  202. Format                                   : UTF-8
  203. Codec ID                                 : S_TEXT/UTF8
  204. Codec ID/Info                            : UTF-8 Plain Text
  205. Duration                                 : 1 h 42 min
  206. Bit rate                                 : 90 b/s
  207. Frame rate                               : 0.267 FPS
  208. Count of elements                        : 1641
  209. Stream size                              : 68.0 KiB (0%)
  210. Title                                    : Spanish (SDH)
  211. Language                                 : Spanish
  212. Default                                  : No
  213. Forced                                   : No
  214. Text #11
  215. ID                                       : 14
  216. Format                                   : UTF-8
  217. Codec ID                                 : S_TEXT/UTF8
  218. Codec ID/Info                            : UTF-8 Plain Text
  219. Duration                                 : 1 h 44 min
  220. Bit rate                                 : 63 b/s
  221. Frame rate                               : 0.189 FPS
  222. Count of elements                        : 1187
  223. Stream size                              : 48.7 KiB (0%)
  224. Title                                    : Finnish
  225. Language                                 : Finnish
  226. Default                                  : No
  227. Forced                                   : No
  228. Text #12
  229. ID                                       : 15
  230. Format                                   : UTF-8
  231. Codec ID                                 : S_TEXT/UTF8
  232. Codec ID/Info                            : UTF-8 Plain Text
  233. Duration                                 : 1 h 44 min
  234. Bit rate                                 : 69 b/s
  235. Frame rate                               : 0.210 FPS
  236. Count of elements                        : 1320
  237. Stream size                              : 53.3 KiB (0%)
  238. Title                                    : French
  239. Language                                 : French
  240. Default                                  : No
  241. Forced                                   : No
  242. Text #13
  243. ID                                       : 16
  244. Format                                   : UTF-8
  245. Codec ID                                 : S_TEXT/UTF8
  246. Codec ID/Info                            : UTF-8 Plain Text
  247. Duration                                 : 1 h 44 min
  248. Bit rate                                 : 105 b/s
  249. Frame rate                               : 0.214 FPS
  250. Count of elements                        : 1345
  251. Stream size                              : 80.7 KiB (0%)
  252. Title                                    : Hebrew
  253. Language                                 : Hebrew
  254. Default                                  : No
  255. Forced                                   : No
  256. Text #14
  257. ID                                       : 17
  258. Format                                   : UTF-8
  259. Codec ID                                 : S_TEXT/UTF8
  260. Codec ID/Info                            : UTF-8 Plain Text
  261. Duration                                 : 1 h 44 min
  262. Bit rate                                 : 60 b/s
  263. Frame rate                               : 0.206 FPS
  264. Count of elements                        : 1291
  265. Stream size                              : 46.4 KiB (0%)
  266. Title                                    : Croatian
  267. Language                                 : Croatian
  268. Default                                  : No
  269. Forced                                   : No
  270. Text #15
  271. ID                                       : 18
  272. Format                                   : UTF-8
  273. Codec ID                                 : S_TEXT/UTF8
  274. Codec ID/Info                            : UTF-8 Plain Text
  275. Duration                                 : 1 h 44 min
  276. Bit rate                                 : 70 b/s
  277. Frame rate                               : 0.199 FPS
  278. Count of elements                        : 1252
  279. Stream size                              : 54.0 KiB (0%)
  280. Title                                    : Hungarian
  281. Language                                 : Hungarian
  282. Default                                  : No
  283. Forced                                   : No
  284. Text #16
  285. ID                                       : 19
  286. Format                                   : UTF-8
  287. Codec ID                                 : S_TEXT/UTF8
  288. Codec ID/Info                            : UTF-8 Plain Text
  289. Duration                                 : 1 h 44 min
  290. Bit rate                                 : 65 b/s
  291. Frame rate                               : 0.207 FPS
  292. Count of elements                        : 1303
  293. Stream size                              : 50.5 KiB (0%)
  294. Title                                    : Indonesian
  295. Language                                 : Indonesian
  296. Default                                  : No
  297. Forced                                   : No
  298. Text #17
  299. ID                                       : 20
  300. Format                                   : UTF-8
  301. Codec ID                                 : S_TEXT/UTF8
  302. Codec ID/Info                            : UTF-8 Plain Text
  303. Duration                                 : 1 h 44 min
  304. Bit rate                                 : 65 b/s
  305. Frame rate                               : 0.200 FPS
  306. Count of elements                        : 1256
  307. Stream size                              : 50.1 KiB (0%)
  308. Title                                    : Italian
  309. Language                                 : Italian
  310. Default                                  : No
  311. Forced                                   : No
  312. Text #18
  313. ID                                       : 21
  314. Format                                   : UTF-8
  315. Codec ID                                 : S_TEXT/UTF8
  316. Codec ID/Info                            : UTF-8 Plain Text
  317. Duration                                 : 1 h 44 min
  318. Bit rate                                 : 73 b/s
  319. Frame rate                               : 0.185 FPS
  320. Count of elements                        : 1159
  321. Stream size                              : 56.7 KiB (0%)
  322. Title                                    : Japanese
  323. Language                                 : Japanese
  324. Default                                  : No
  325. Forced                                   : No
  326. Text #19
  327. ID                                       : 22
  328. Format                                   : UTF-8
  329. Codec ID                                 : S_TEXT/UTF8
  330. Codec ID/Info                            : UTF-8 Plain Text
  331. Duration                                 : 1 h 44 min
  332. Bit rate                                 : 92 b/s
  333. Frame rate                               : 0.218 FPS
  334. Count of elements                        : 1369
  335. Stream size                              : 71.1 KiB (0%)
  336. Title                                    : Korean
  337. Language                                 : Korean
  338. Default                                  : No
  339. Forced                                   : No
  340. Text #20
  341. ID                                       : 23
  342. Format                                   : UTF-8
  343. Codec ID                                 : S_TEXT/UTF8
  344. Codec ID/Info                            : UTF-8 Plain Text
  345. Duration                                 : 1 h 44 min
  346. Bit rate                                 : 70 b/s
  347. Frame rate                               : 0.212 FPS
  348. Count of elements                        : 1330
  349. Stream size                              : 53.8 KiB (0%)
  350. Title                                    : Malay (macrolanguage)
  351. Language                                 : Malay
  352. Default                                  : No
  353. Forced                                   : No
  354. Text #21
  355. ID                                       : 24
  356. Format                                   : UTF-8
  357. Codec ID                                 : S_TEXT/UTF8
  358. Codec ID/Info                            : UTF-8 Plain Text
  359. Duration                                 : 1 h 44 min
  360. Bit rate                                 : 66 b/s
  361. Frame rate                               : 0.172 FPS
  362. Count of elements                        : 1079
  363. Stream size                              : 51.2 KiB (0%)
  364. Title                                    : Norwegian Bokm?l
  365. Language                                 : Norwegian Bokmal
  366. Default                                  : No
  367. Forced                                   : No
  368. Text #22
  369. ID                                       : 25
  370. Format                                   : UTF-8
  371. Codec ID                                 : S_TEXT/UTF8
  372. Codec ID/Info                            : UTF-8 Plain Text
  373. Duration                                 : 1 h 44 min
  374. Bit rate                                 : 61 b/s
  375. Frame rate                               : 0.191 FPS
  376. Count of elements                        : 1198
  377. Stream size                              : 47.5 KiB (0%)
  378. Title                                    : Dutch
  379. Language                                 : Dutch
  380. Default                                  : No
  381. Forced                                   : No
  382. Text #23
  383. ID                                       : 26
  384. Format                                   : UTF-8
  385. Codec ID                                 : S_TEXT/UTF8
  386. Codec ID/Info                            : UTF-8 Plain Text
  387. Duration                                 : 1 h 44 min
  388. Bit rate                                 : 62 b/s
  389. Frame rate                               : 0.210 FPS
  390. Count of elements                        : 1316
  391. Stream size                              : 48.2 KiB (0%)
  392. Title                                    : Polish
  393. Language                                 : Polish
  394. Default                                  : No
  395. Forced                                   : No
  396. Text #24
  397. ID                                       : 27
  398. Format                                   : UTF-8
  399. Codec ID                                 : S_TEXT/UTF8
  400. Codec ID/Info                            : UTF-8 Plain Text
  401. Duration                                 : 1 h 44 min
  402. Bit rate                                 : 65 b/s
  403. Frame rate                               : 0.210 FPS
  404. Count of elements                        : 1322
  405. Stream size                              : 50.5 KiB (0%)
  406. Title                                    : Portuguese
  407. Language                                 : Portuguese
  408. Default                                  : No
  409. Forced                                   : No
  410. Text #25
  411. ID                                       : 28
  412. Format                                   : UTF-8
  413. Codec ID                                 : S_TEXT/UTF8
  414. Codec ID/Info                            : UTF-8 Plain Text
  415. Duration                                 : 1 h 44 min
  416. Bit rate                                 : 50 b/s
  417. Frame rate                               : 0.162 FPS
  418. Count of elements                        : 1020
  419. Stream size                              : 39.0 KiB (0%)
  420. Title                                    : Portuguese
  421. Language                                 : Portuguese
  422. Default                                  : No
  423. Forced                                   : No
  424. Text #26
  425. ID                                       : 29
  426. Format                                   : UTF-8
  427. Codec ID                                 : S_TEXT/UTF8
  428. Codec ID/Info                            : UTF-8 Plain Text
  429. Duration                                 : 1 h 44 min
  430. Bit rate                                 : 76 b/s
  431. Frame rate                               : 0.206 FPS
  432. Count of elements                        : 1296
  433. Stream size                              : 58.4 KiB (0%)
  434. Title                                    : Romanian
  435. Language                                 : Romanian
  436. Default                                  : No
  437. Forced                                   : No
  438. Text #27
  439. ID                                       : 30
  440. Format                                   : UTF-8
  441. Codec ID                                 : S_TEXT/UTF8
  442. Codec ID/Info                            : UTF-8 Plain Text
  443. Duration                                 : 1 h 44 min
  444. Bit rate                                 : 112 b/s
  445. Frame rate                               : 0.215 FPS
  446. Count of elements                        : 1348
  447. Stream size                              : 86.6 KiB (0%)
  448. Title                                    : Russian
  449. Language                                 : Russian
  450. Default                                  : No
  451. Forced                                   : No
  452. Text #28
  453. ID                                       : 31
  454. Format                                   : UTF-8
  455. Codec ID                                 : S_TEXT/UTF8
  456. Codec ID/Info                            : UTF-8 Plain Text
  457. Duration                                 : 1 h 44 min
  458. Bit rate                                 : 69 b/s
  459. Frame rate                               : 0.174 FPS
  460. Count of elements                        : 1096
  461. Stream size                              : 53.2 KiB (0%)
  462. Title                                    : Swedish
  463. Language                                 : Swedish
  464. Default                                  : No
  465. Forced                                   : No
  466. Text #29
  467. ID                                       : 32
  468. Format                                   : UTF-8
  469. Codec ID                                 : S_TEXT/UTF8
  470. Codec ID/Info                            : UTF-8 Plain Text
  471. Duration                                 : 1 h 44 min
  472. Bit rate                                 : 175 b/s
  473. Frame rate                               : 0.214 FPS
  474. Count of elements                        : 1347
  475. Stream size                              : 134 KiB (0%)
  476. Title                                    : Thai
  477. Language                                 : Thai
  478. Default                                  : No
  479. Forced                                   : No
  480. Text #30
  481. ID                                       : 33
  482. Format                                   : UTF-8
  483. Codec ID                                 : S_TEXT/UTF8
  484. Codec ID/Info                            : UTF-8 Plain Text
  485. Duration                                 : 1 h 44 min
  486. Bit rate                                 : 63 b/s
  487. Frame rate                               : 0.205 FPS
  488. Count of elements                        : 1286
  489. Stream size                              : 48.9 KiB (0%)
  490. Title                                    : Turkish
  491. Language                                 : Turkish
  492. Default                                  : No
  493. Forced                                   : No
  494. Text #31
  495. ID                                       : 34
  496. Format                                   : UTF-8
  497. Codec ID                                 : S_TEXT/UTF8
  498. Codec ID/Info                            : UTF-8 Plain Text
  499. Duration                                 : 1 h 44 min
  500. Bit rate                                 : 117 b/s
  501. Frame rate                               : 0.230 FPS
  502. Count of elements                        : 1442
  503. Stream size                              : 89.7 KiB (0%)
  504. Title                                    : Ukrainian
  505. Language                                 : Ukrainian
  506. Default                                  : No
  507. Forced                                   : No
  508. Text #32
  509. ID                                       : 35
  510. Format                                   : UTF-8
  511. Codec ID                                 : S_TEXT/UTF8
  512. Codec ID/Info                            : UTF-8 Plain Text
  513. Duration                                 : 1 h 44 min
  514. Bit rate                                 : 103 b/s
  515. Frame rate                               : 0.211 FPS
  516. Count of elements                        : 1326
  517. Stream size                              : 79.3 KiB (0%)
  518. Title                                    : Vietnamese
  519. Language                                 : Vietnamese
  520. Default                                  : No
  521. Forced                                   : No
  522. Text #33
  523. ID                                       : 36
  524. Format                                   : UTF-8
  525. Codec ID                                 : S_TEXT/UTF8
  526. Codec ID/Info                            : UTF-8 Plain Text
  527. Duration                                 : 1 h 44 min
  528. Bit rate                                 : 70 b/s
  529. Frame rate                               : 0.216 FPS
  530. Count of elements                        : 1355
  531. Stream size                              : 54.2 KiB (0%)
  532. Title                                    : Simplified, Chinese
  533. Language                                 : Chinese
  534. Default                                  : No
  535. Forced                                   : No
  536. Text #34
  537. ID                                       : 37
  538. Format                                   : UTF-8
  539. Codec ID                                 : S_TEXT/UTF8
  540. Codec ID/Info                            : UTF-8 Plain Text
  541. Duration                                 : 1 h 44 min
  542. Bit rate                                 : 64 b/s
  543. Frame rate                               : 0.216 FPS
  544. Count of elements                        : 1354
  545. Stream size                              : 49.8 KiB (0%)
  546. Title                                    : Traditional, Chinese
  547. Language                                 : Chinese
  548. Default                                  : No
  549. Forced                                   : No
  550. Menu
  551. 00:00:00.000                             : en:Part 01
  552. 01:42:26.450                             : en:Credits
复制代码











回复

使用道具 举报

懒得打字嘛,点击右侧快捷回复 【右侧内容,后台自定义】
您需要登录后才可以回帖 登录 | 立即加入

本版积分规则

Archiver|小黑屋| 蓝光电影网 |网站地图

Copyright © 2021 Comsenz Inc. Powered by 蓝光电影网

蓝光电影网

本站内容由用户自主分享和转载自互联网,转载目的在于传递更多信息,并不代表本网赞同其观点和对其真实性负责。

如有侵权、违反国家法律政策行为,请联系我们,我们会第一时间及时清除和处理!

举报反馈邮箱:[email protected]

快速回复 返回顶部 返回列表